Run 2020 x264 720p Esub BluRay Dual Audio English Hindi THE GOPI SAHI

Run (2020)

 
 
A homeschooled teenager begins to suspect her mother is keeping a dark secret from her.
EN

Director:

Aneesh Chaganty
 
6.7/10
31,718
Directed byAneesh Chaganty
Produced by
Written by
  • Aneesh Chaganty
  • Sev Ohanian
Starring
Music byTorin Borrowdale
CinematographyHillary Fyffe Spera
Edited by
  • Nick Johnson
  • Will Merrick
Production
companies
Distributed by
Release date
  • October 8, 2020 (Nightstream)[1]
  • November 20, 2020 (United States)
Running time
89 minutes
CountryUnited States
LanguageEnglish
Box office$3.4 million[2][3]

 

 Run 2020 x264 720p Esub BluRay Dual Audio English Hindi THE GOPI SAHI

Format                         : Matroska
Format version                 : Version 4
File size                      : 701 MiB
Duration                       : 1 h 29 min
Overall bit rate               : 1 094 kb/s
Movie name                     : Run 2020 GOPI SAHI
Encoded date                   : UTC 2021-04-03 03:08:41

Video
ID                             : 1
Format                         : AVC
Format/Info                    : Advanced Video Codec
Format profile                 : [email protected]
Format settings                : CABAC / 5 Ref Frames
Format settings, CABAC         : Yes
Format settings, Reference fra : 5 frames
Codec ID                       : V_MPEG4/ISO/AVC
Duration                       : 1 h 29 min
Bit rate                       : 899 kb/s
Width                          : 1 280 pixels
Height                         : 536 pixels
Display aspect ratio           : 2.40:1
Frame rate mode                : Constant
Frame rate                     : 24.000 FPS
Color space                    : YUV
Chroma subsampling             : 4:2:0
Bit depth                      : 8 bits
Scan type                      : Progressive
Bits/(Pixel*Frame)             : 0.055
Stream size                    : 576 MiB (82%)
Title                          : GOPI SAHI
Writing library                : x264 core 157 r2935 545de2f

Audio #1
ID                             : 2
Format                         : AAC LC
Format/Info                    : Advanced Audio Codec Low Complexity
Codec ID                       : A_AAC-2
Duration                       : 1 h 29 min
Bit rate                       : 96.0 kb/s
Channel(s)                     : 2 channels
Channel layout                 : L R
Sampling rate                  : 48.0 kHz
Frame rate                     : 46.875 FPS (1024 SPF)
Compression mode               : Lossy
Delay relative to video        : -21 ms
Stream size                    : 61.7 MiB (9%)
Title                          : GOPI SAHI
Language                       : Hindi
Default                        : Yes
Forced                         : No

Audio #2
ID                             : 3
Format                         : AAC LC
Format/Info                    : Advanced Audio Codec Low Complexity
Codec ID                       : A_AAC-2
Duration                       : 1 h 29 min
Bit rate                       : 96.0 kb/s
Channel(s)                     : 2 channels
Channel layout                 : L R
Sampling rate                  : 48.0 kHz
Frame rate                     : 46.875 FPS (1024 SPF)
Compression mode               : Lossy
Delay relative to video        : -21 ms
Stream size                    : 61.7 MiB (9%)
Title                          : GOPI SAHI
Language                       : English
Default                        : No
Forced                         : No

Text
Language                       : English

Menu
00:00:00.000                   : :Chapter 1
00:10:45.000                   : :Chapter 2
00:22:37.833                   : :Chapter 3
00:35:54.917                   : :Chapter 4
00:45:03.292                   : :Chapter 5
00:56:08.292                   : :Chapter 6
01:08:36.292                   : :Chapter 7
01:18:11.500                   : :Chapter 8
01:29:34.000                   : :Chapter 9




 MAGNET

TORRENT

TORRENT 2 ZIP FILE


GDRIVE FILE COPY

DWONLOAD AUTO START IN 20 SEC ZIP FILE


DOWNLOAD AND ONLINE DUBOX LINK = PASSWORD = yehm

MULTIUP

MEDIAFIRE

ONLINE 720P