Godzilla Vs Kong 2021 x264 720p WebHD Esub THE GOPI SAHI

 

Godzilla vs. Kong (2021)

PG-13 | | Action, Sci-Fi, Thriller | 31 March 2021 (USA)
 
 

 

In Theaters Now

The epic next chapter in the cinematic Monsterverse pits two of the greatest icons in motion picture history against one another - the fearsome Godzilla and the mighty Kong - with humanity caught in the balance.
EN

Director:

Adam Wingard

Writers:

Eric Pearson (screenplay by), Max Borenstein (screenplay by) | 3 more credits »
 
7.4/10
15,657

 


 

Godzilla Vs Kong 2021 x264 720p WebHD Esub THE GOPI SAHI


Format                         : MPEG-4
Format profile                 : Base Media / Version 2
Codec ID                       : mp42 (isom/iso2/avc1)
File size                      : 810 MiB
Duration                       : 1 h 53 min
Overall bit rate mode          : Variable
Overall bit rate               : 1 001 kb/s
Encoded date                   : UTC 2021-03-31 14:33:04
Tagged date                    : UTC 2021-03-31 14:33:04
Writing application            : HandBrake 1.3.3 2020061300

Video
ID                             : 1
Format                         : AVC
Format/Info                    : Advanced Video Codec
Format profile                 : [email protected]
Format settings                : CABAC / 5 Ref Frames
Format settings, CABAC         : Yes
Format settings, Reference fra : 5 frames
Codec ID                       : avc1
Codec ID/Info                  : Advanced Video Coding
Duration                       : 1 h 53 min
Bit rate                       : 899 kb/s
Width                          : 1 280 pixels
Height                         : 536 pixels
Display aspect ratio           : 2.40:1
Frame rate mode                : Variable
Frame rate                     : 23.976 (24000/1001) FPS
Minimum frame rate             : 23.974 FPS
Maximum frame rate             : 23.981 FPS
Color space                    : YUV
Chroma subsampling             : 4:2:0
Bit depth                      : 8 bits
Scan type                      : Progressive
Bits/(Pixel*Frame)             : 0.055
Stream size                    : 727 MiB (90%)
Writing library                : x264 core 157 r2935 545de2f
Encoded date                   : UTC 2021-03-31 14:33:04
Tagged date                    : UTC 2021-03-31 14:33:04
Color range                    : Limited
Color primaries                : BT.709
Transfer characteristics       : BT.709
Matrix coefficients            : BT.709
Codec configuration box        : avcC

Audio
ID                             : 2
Format                         : AAC LC
Format/Info                    : Advanced Audio Codec Low Complexity
Codec ID                       : mp4a-40-2
Duration                       : 1 h 53 min
Bit rate mode                  : Constant
Bit rate                       : 96.0 kb/s
Channel(s)                     : 2 channels
Channel layout                 : L R
Sampling rate                  : 48.0 kHz
Frame rate                     : 46.875 FPS (1024 SPF)
Compression mode               : Lossy
Stream size                    : 77.7 MiB (10%)
Title                          : GOPI SAHI
Language                       : English
Default                        : Yes
Alternate group                : 1
Encoded date                   : UTC 2021-03-31 14:33:04
Tagged date                    : UTC 2021-03-31 14:33:04

Text
ID                             : 3
Format                         : Timed Text
Muxing mode                    : sbtl
Codec ID                       : tx3g
Duration                       : 1 h 46 min
Bit rate mode                  : Variable
Bit rate                       : 94 b/s
Stream size                    : 72.7 KiB (0%)
Language                       : English
Default                        : Yes
Forced                         : No
Alternate group                : 3
Encoded date                   : UTC 2021-03-31 14:33:04
Tagged date                    : UTC 2021-03-31 14:33:04




MAGNET

TORRENT

TORRENT 2 ZIP FILE

GDRIVE FILE COPY

DWONLOAD AUTO START IN 20 SEC ZIP FILE


DOWNLOAD AND ONLINE DOBOX LINK
= PASSWORD = dnb2

MULTIUP

MEDIAFIRE


ONLINE 720P