Rogue 2020 x264 720p WebHD English Hindi Tamil Telugu Bihari Knnada GOPI SAHI

 

Rogue (2020)

 
 
O'Hara is a mercenary leading a squad of soldiers on their mission to rescue hostages in remote part of Africa. Unfortunately the mission goes wrong and the team are stranded, forced to survive against the local rebels.
EN

Director:

M.J. Bassett (as MJ Bassett)

Writers:

Isabel Bassett (screenplay by), M.J. Bassett (screenplay by) (as MJ Bassett) | 1 more credit »
 
3.9/10
5,517
 
Directed byM. J. Bassett
Produced by
  • Kyle Ambrose
  • Delon Bakker
  • M. J. Bassett
  • Molly Hassell
Written by
  • M. J. Bassett
  • Isabel Bassett
Starring
Music by
CinematographyBrendan Barnes
Edited by
  • Andrew MacRitchie
  • David Wigram
Production
companies
Distributed byLionsgate
Release date
  • August 28, 2020
Running time
105 minutes
CountryUnited States
LanguageEnglish
Box office$242,884[1][2]

 


 Rogue 2020 x264 720p WebHD English Hindi Tamil Telugu Bihari Knnada GOPI SAHI

Format                         : Matroska
Format version                 : Version 4
File size                      : 1.05 GiB
Duration                       : 1 h 41 min
Overall bit rate               : 1 482 kb/s
Movie name                     : Rogue 2020 English Hindi Tamil Telugu Bihari Knnada GOPI SAHI
Encoded date                   : UTC 2021-03-13 07:58:10

Video
ID                             : 1
Format                         : AVC
Format/Info                    : Advanced Video Codec
Format profile                 : [email protected]
Format settings                : CABAC / 5 Ref Frames
Format settings, CABAC         : Yes
Format settings, Reference fra : 5 frames
Codec ID                       : V_MPEG4/ISO/AVC
Duration                       : 1 h 41 min
Bit rate                       : 899 kb/s
Width                          : 1 280 pixels
Height                         : 536 pixels
Display aspect ratio           : 2.40:1
Frame rate mode                : Constant
Frame rate                     : 25.000 FPS
Color space                    : YUV
Chroma subsampling             : 4:2:0
Bit depth                      : 8 bits
Scan type                      : Progressive
Bits/(Pixel*Frame)             : 0.052
Stream size                    : 654 MiB (61%)
Title                          : GOPI SAHI
Writing library                : x264 core 157 r2935 545de2f

Audio #1
ID                             : 2
Format                         : AAC LC
Format/Info                    : Advanced Audio Codec Low Complexity
Codec ID                       : A_AAC-2
Duration                       : 1 h 41 min
Bit rate                       : 96.0 kb/s
Channel(s)                     : 2 channels
Channel layout                 : L R
Sampling rate                  : 44.1 kHz
Frame rate                     : 43.066 FPS (1024 SPF)
Compression mode               : Lossy
Delay relative to video        : -23 ms
Stream size                    : 70.0 MiB (6%)
Title                          : GOPI SAHI
Language                       : Hindi
Default                        : Yes
Forced                         : No

Audio #2
ID                             : 3
Format                         : AAC LC
Format/Info                    : Advanced Audio Codec Low Complexity
Codec ID                       : A_AAC-2
Duration                       : 1 h 41 min
Bit rate                       : 96.0 kb/s
Channel(s)                     : 2 channels
Channel layout                 : L R
Sampling rate                  : 44.1 kHz
Frame rate                     : 43.066 FPS (1024 SPF)
Compression mode               : Lossy
Delay relative to video        : -23 ms
Stream size                    : 69.9 MiB (6%)
Title                          : GOPI SAHI
Language                       : English
Default                        : No
Forced                         : No

Audio #3
ID                             : 4
Format                         : AAC LC
Format/Info                    : Advanced Audio Codec Low Complexity
Codec ID                       : A_AAC-2
Duration                       : 1 h 41 min
Bit rate                       : 96.0 kb/s
Channel(s)                     : 2 channels
Channel layout                 : L R
Sampling rate                  : 44.1 kHz
Frame rate                     : 43.066 FPS (1024 SPF)
Compression mode               : Lossy
Delay relative to video        : -23 ms
Stream size                    : 70.1 MiB (7%)
Title                          : GOPI SAHI
Language                       : Tamil
Default                        : No
Forced                         : No

Audio #4
ID                             : 5
Format                         : AAC LC
Format/Info                    : Advanced Audio Codec Low Complexity
Codec ID                       : A_AAC-2
Duration                       : 1 h 41 min
Bit rate                       : 96.0 kb/s
Channel(s)                     : 2 channels
Channel layout                 : L R
Sampling rate                  : 44.1 kHz
Frame rate                     : 43.066 FPS (1024 SPF)
Compression mode               : Lossy
Delay relative to video        : -23 ms
Stream size                    : 70.1 MiB (7%)
Title                          : GOPI SAHI
Language                       : Telugu
Default                        : No
Forced                         : No

Audio #5
ID                             : 6
Format                         : AAC LC
Format/Info                    : Advanced Audio Codec Low Complexity
Codec ID                       : A_AAC-2
Duration                       : 1 h 41 min
Bit rate                       : 96.0 kb/s
Channel(s)                     : 2 channels
Channel layout                 : L R
Sampling rate                  : 48.0 kHz
Frame rate                     : 46.875 FPS (1024 SPF)
Compression mode               : Lossy
Delay relative to video        : -21 ms
Stream size                    : 70.0 MiB (6%)
Title                          : GOPI SAHI
Language                       : Bihari
Default                        : No
Forced                         : No

Audio #6
ID                             : 7
Format                         : AAC LC
Format/Info                    : Advanced Audio Codec Low Complexity
Codec ID                       : A_AAC-2
Duration                       : 1 h 41 min
Bit rate                       : 96.0 kb/s
Channel(s)                     : 2 channels
Channel layout                 : L R
Sampling rate                  : 48.0 kHz
Frame rate                     : 46.875 FPS (1024 SPF)
Compression mode               : Lossy
Delay relative to video        : -21 ms
Stream size                    : 70.1 MiB (7%)
Title                          : GOPI SAHI
Language                       : Kannada
Default                        : No
Forced                         : No




 MAGNET

TORRENT


TORRENT 2 ZIP FILE

GDRIVE FILE COPY

DWONLOAD AUTO START IN 20 SEC ZIP FILE

DOWNLOAD AND ONLINE DOBOX LINK = PASSWORD = qb6u

MULTIUP

MEDIAFIRE

ONLINE 720P