Pride and Prejudice and Zombies 2016 x264 720p Esub BluRay Dual Audio English Hindi THE GOPI SAHI

 

Pride and Prejudice and Zombies (2016)

 
 
Five sisters in 19th century England must cope with the pressures to marry while protecting themselves from a growing population of zombies.
EN

Director:

Burr Steers

Writers:

Burr Steers (screenplay), Jane Austen (Quirk Books novel) | 1 more credit »
 
5.8/10
51,930
Directed byBurr Steers
Produced by
Screenplay byBurr Steers
Based on
Starring
Music byFernando Velázquez
CinematographyRemi Adefarasin
Edited byPadraic McKinley
Production
companies
Distributed by
Release date
  • January 21, 2016 (Los Angeles)
  • February 5, 2016 (United States)
  • February 11, 2016 (United Kingdom)
Running time
108 minutes[1]
Countries
  • United Kingdom[2]
  • United States
LanguageEnglish
Budget$28 million[3]
Box office$16.4 million[4]

 


Pride and Prejudice and Zombies 2016 x264 720p Esub BluRay Dual Audio English Hindi THE GOPI SAHI


Format                         : Matroska
Format version                 : Version 4
File size                      : 840 MiB
Duration                       : 1 h 47 min
Overall bit rate               : 1 093 kb/s
Movie name                     : Pride and Prejudice and Zombies 2016 GOPI SAHI
Encoded date                   : UTC 2020-11-13 09:15:07
Writing application            : mkvmerge v46.0.0 ('No Deeper Escape') 32-bit
Writing library                : libebml v1.3.10 + libmatroska v1.5.2

Video
ID                             : 1
Format                         : AVC
Format/Info                    : Advanced Video Codec
Format profile                 : [email protected]
Format settings                : CABAC / 5 Ref Frames
Format settings, CABAC         : Yes
Format settings, Reference fra : 5 frames
Codec ID                       : V_MPEG4/ISO/AVC
Duration                       : 1 h 47 min
Bit rate                       : 899 kb/s
Width                          : 1 280 pixels
Height                         : 534 pixels
Display aspect ratio           : 2.40:1
Frame rate mode                : Constant
Frame rate                     : 23.976 (24000/1001) FPS
Color space                    : YUV
Chroma subsampling             : 4:2:0
Bit depth                      : 8 bits
Scan type                      : Progressive
Bits/(Pixel*Frame)             : 0.055
Stream size                    : 691 MiB (82%)
Title                          : GOPI SAHI
Writing library                : x264 core 157 r2935 545de2f

Audio #1
ID                             : 2
Format                         : AAC LC
Format/Info                    : Advanced Audio Codec Low Complexity
Codec ID                       : A_AAC-2
Duration                       : 1 h 47 min
Bit rate                       : 96.0 kb/s
Channel(s)                     : 2 channels
Channel layout                 : L R
Sampling rate                  : 48.0 kHz
Frame rate                     : 46.875 FPS (1024 SPF)
Compression mode               : Lossy
Delay relative to video        : -21 ms
Stream size                    : 72.9 MiB (9%)
Title                          : GOPI SAHI
Language                       : Hindi
Default                        : Yes
Forced                         : No

Audio #2
ID                             : 3
Format                         : AAC LC
Format/Info                    : Advanced Audio Codec Low Complexity
Codec ID                       : A_AAC-2
Duration                       : 1 h 47 min
Bit rate                       : 96.0 kb/s
Channel(s)                     : 2 channels
Channel layout                 : L R
Sampling rate                  : 48.0 kHz
Frame rate                     : 46.875 FPS (1024 SPF)
Compression mode               : Lossy
Delay relative to video        : -21 ms
Stream size                    : 74.2 MiB (9%)
Title                          : GOPI SAHI
Language                       : English
Default                        : No
Forced                         : No

Text
ID                             : 4
Format                         : UTF-8
Codec ID                       : S_TEXT/UTF8
Codec ID/Info                  : UTF-8 Plain Text
Duration                       : 1 h 46 min
Bit rate                       : 58 b/s
Count of elements              : 1294
Stream size                    : 46.0 KiB (0%)
Title                          : GOPI SAHI
Language                       : English
Default                        : Yes
Forced                         : No

Menu
00:00:00.000                   : :Chapter 1
00:06:41.318                   : :Chapter 2
00:11:50.251                   : :Chapter 3
00:17:59.996                   : :Chapter 4
00:24:06.487                   : :Chapter 5
00:31:53.036                   : :Chapter 6
00:37:43.595                   : :Chapter 7
00:44:22.243                   : :Chapter 8
00:52:06.624                   : :Chapter 9
00:59:28.607                   : :Chapter 10
01:05:45.233                   : :Chapter 11
01:11:16.981                   : :Chapter 12
01:18:40.674                   : :Chapter 13
01:25:03.348                   : :Chapter 14
01:30:18.163                   : :Chapter 15
01:35:49.744                   : :Chapter 16




 MAGNET

TORRENT


TORRENT 2 ZIP FILE

GDRIVE FILE COPY

DWONLOAD AUTO START IN 20 SEC ZIP FILE

DOSYA

DOWNLOAD AND ONLINE DOBOX LINK = PASSWORD = pvyh

MULTIUP

MEDIAFIRE

ONLINE 720P