Master 2021 x264 720p WebHD Esub Hindi Tamil THE GOPI SAHI

 

Master (2021)

Not Rated | | Action, Thriller | 13 January 2021 (USA)
 
 
An alcoholic professor is sent to a juvenile school, where he clashes with a gangster who uses the school children for criminal activities.
EN

Director:

Lokesh Kanagaraj

Writers:

Lokesh Kanagaraj, Pon Parthiban (dialogue) | 2 more credits »
 
 
7.1/10
50,444
 
Directed byLokesh Kanagaraj
Produced byXavier Britto
Screenplay by
Story byLokesh Kanagaraj
Starring
Music byAnirudh Ravichander
CinematographySathyan Sooryan
Edited byPhilomin Raj
Production
company
XB Film Creators
Distributed bySeven Screen Studios
Release date
  • 13 January 2021
Running time
179 minutes
CountryIndia
LanguageTamil
Budget135 crore[1]
Box officeest. 263 crore–300 crore[2][3]

 


 Master 2021 x264 720p WebHD Esub Hindi Tamil THE GOPI SAHI

Format                         : Matroska
Format version                 : Version 4
File size                      : 1.36 GiB
Duration                       : 2 h 57 min
Overall bit rate               : 1 095 kb/s
Movie name                     : Master 2021 GOPI SAHI
Encoded date                   : UTC 2021-03-16 11:45:25
Writing application            : mkvmerge v52.0.0 ('Secret For The Mad') 64-bit

Video
ID                             : 1
Format                         : AVC
Format/Info                    : Advanced Video Codec
Format profile                 : [email protected]
Format settings                : CABAC / 5 Ref Frames
Format settings, CABAC         : Yes
Format settings, Reference fra : 5 frames
Codec ID                       : V_MPEG4/ISO/AVC
Duration                       : 2 h 57 min
Bit rate                       : 899 kb/s
Width                          : 1 280 pixels
Height                         : 544 pixels
Display aspect ratio           : 2.35:1
Frame rate mode                : Constant
Frame rate                     : 24.000 FPS
Color space                    : YUV
Chroma subsampling             : 4:2:0
Bit depth                      : 8 bits
Scan type                      : Progressive
Bits/(Pixel*Frame)             : 0.054
Stream size                    : 1.11 GiB (82%)
Title                          : GOPI SAHI
Writing library                : x264 core 157 r2935 545de2f
Language                       : Tamil
Default                        : Yes
Forced                         : No
Color range                    : Limited
Color primaries                : Generic film
Transfer characteristics       : BT.709
Matrix coefficients            : BT.709

Audio #1
ID                             : 2
Format                         : AAC LC
Format/Info                    : Advanced Audio Codec Low Complexity
Codec ID                       : A_AAC-2
Duration                       : 2 h 57 min
Bit rate                       : 96.0 kb/s
Channel(s)                     : 2 channels
Channel layout                 : L R
Sampling rate                  : 48.0 kHz
Frame rate                     : 46.875 FPS (1024 SPF)
Compression mode               : Lossy
Delay relative to video        : -21 ms
Stream size                    : 122 MiB (9%)
Title                          : GOPI SAHI
Language                       : Hindi
Default                        : Yes
Forced                         : No

Audio #2
ID                             : 3
Format                         : AAC LC
Format/Info                    : Advanced Audio Codec Low Complexity
Codec ID                       : A_AAC-2
Duration                       : 2 h 57 min
Bit rate                       : 96.0 kb/s
Channel(s)                     : 2 channels
Channel layout                 : L R
Sampling rate                  : 48.0 kHz
Frame rate                     : 46.875 FPS (1024 SPF)
Compression mode               : Lossy
Delay relative to video        : -21 ms
Stream size                    : 122 MiB (9%)
Title                          : GOPI SAHI
Language                       : Tamil
Default                        : No
Forced                         : No

Text
Language                       : English

Menu
00:00:00.000                   : :Film Certification
00:00:04.125                   : :Health Advisory
00:00:24.042                   : :Disclaimer
00:00:28.042                   : :Acknowledgement
00:00:49.000                   : :Studio Logo
00:02:10.000                   : :Scene 6
00:03:28.000                   : :Scene 7
00:04:56.000                   : :Scene 8
00:06:06.000                   : :Scene 9
00:08:17.000                   : :Scene 10
00:13:30.000                   : :Scene 11
00:14:54.083                   : :Opening Credits
00:15:18.083                   : :Scene 13
00:18:04.125                   : :Scene 14
00:24:17.042                   : :Scene 15
00:26:13.125                   : :Scene 16
00:28:07.042                   : :Scene 17
00:32:46.083                   : :Scene 18
00:35:57.125                   : :Scene 19
00:37:39.125                   : :Scene 20
00:41:36.125                   : :Scene 21
00:44:58.000                   : :Scene 22
00:49:06.000                   : :Scene 23
00:52:23.000                   : :Scene 24
00:53:16.042                   : :Scene 25
00:54:44.083                   : :Scene 26
00:57:05.083                   : :Scene 27
00:58:34.042                   : :Scene 28
01:03:36.125                   : :Scene 29
01:09:36.125                   : :Scene 30
01:16:33.000                   : :Scene 31
01:18:03.000                   : :Scene 32
01:26:33.000                   : :Scene 33
01:32:59.083                   : :Scene 34
01:36:37.042                   : :Scene 35
01:43:19.083                   : :Scene 36
01:47:02.000                   : :Scene 37
01:50:12.000                   : :Scene 38
01:57:25.000                   : :Scene 39
02:03:20.000                   : :Scene 40
02:10:08.083                   : :Scene 41
02:16:18.125                   : :Scene 42
02:22:51.083                   : :Scene 43
02:24:34.042                   : :Scene 44
02:32:14.125                   : :Scene 45
02:36:59.042                   : :Scene 46
02:41:33.125                   : :Scene 47
02:50:54.000                   : :Scene 48
02:54:58.125                   : :End Credits




MAGNET

TORRENT

TORRENT 2 ZIP FILE

GDRIVE FILE COPY

DWONLOAD AUTO START IN 20 SEC ZIP FILE

DOWNLOAD AND ONLINE DOBOX LINK = PASSWORD = tf6x

MULTIUP

MEDIAFIRE


ONLINE 720P

 

 ONLINE PROSSING