Love, Simon 2018 x264 720p Esub BluRay Dual Audio English Hindi THE GOPI SAHI

Love, Simon (2018)

PG-13 | | Comedy, Drama, Romance | 16 March 2018 (USA)
 
 
Simon Spier keeps a huge secret from his family, his friends and all of his classmates: he's gay. When that secret is threatened, Simon must face everyone and come to terms with his identity.
EN

Director:

Greg Berlanti

Writers:

Becky Albertalli (based upon the novel "Simon vs. the Homo Sapiens Agenda" by), Elizabeth Berger (screenplay by) | 1 more credit »
 
7.6/10
99,339
Directed byGreg Berlanti
Produced by
Screenplay by
  • Isaac Aptaker
  • Elizabeth Berger
Based onSimon vs. the Homo Sapiens Agenda
by Becky Albertalli
Starring
Music byRob Simonsen
CinematographyJohn Guleserian
Edited byHarry Jierjian
Production
companies
Distributed by20th Century Fox
Release date
  • February 27, 2018 (MGFF)
  • March 16, 2018 (United States)
Running time
110 minutes[1]
CountryUnited States
LanguageEnglish
Budget$10–17 million[2][3]
Box office$66.3 million[4]

 



Love, Simon 2018 x264 720p Esub BluRay Dual Audio English Hindi THE GOPI SAHI

Format                         : Matroska
Format version                 : Version 4
File size                      : 918 MiB
Duration                       : 1 h 49 min
Overall bit rate               : 1 170 kb/s
Movie name                     : Love, Simon 2018 GOPI SAHI
Encoded date                   : UTC 2021-01-20 09:45:25
Writing application            : mkvmerge v52.0.0 ('Secret For The Mad') 64-bit
Writing library                : libebml v1.4.1 + libmatroska v1.6.2

Video
ID                             : 1
Format                         : AVC
Format/Info                    : Advanced Video Codec
Format profile                 : [email protected]
Format settings                : CABAC / 5 Ref Frames
Format settings, CABAC         : Yes
Format settings, Reference fra : 5 frames
Codec ID                       : V_MPEG4/ISO/AVC
Duration                       : 1 h 49 min
Bit rate                       : 899 kb/s
Width                          : 1 280 pixels
Height                         : 536 pixels
Display aspect ratio           : 2.40:1
Frame rate mode                : Constant
Frame rate                     : 23.976 (24000/1001) FPS
Color space                    : YUV
Chroma subsampling             : 4:2:0
Bit depth                      : 8 bits
Scan type                      : Progressive
Bits/(Pixel*Frame)             : 0.055
Stream size                    : 705 MiB (77%)
Title                          : GOPI SAHI
Writing library                : x264 core 157 r2935 545de2f

Audio #1
ID                             : 2
Format                         : AAC LC
Format/Info                    : Advanced Audio Codec Low Complexity
Codec ID                       : A_AAC-2
Duration                       : 1 h 49 min
Bit rate                       : 96.0 kb/s
Channel(s)                     : 2 channels
Channel layout                 : L R
Sampling rate                  : 48.0 kHz
Frame rate                     : 46.875 FPS (1024 SPF)
Compression mode               : Lossy
Delay relative to video        : -21 ms
Stream size                    : 75.6 MiB (8%)
Title                          : GOPI SAHI
Language                       : Hindi
Default                        : Yes
Forced                         : No

Audio #2
ID                             : 3
Format                         : AAC LC
Format/Info                    : Advanced Audio Codec Low Complexity
Codec ID                       : A_AAC-2
Duration                       : 1 h 49 min
Bit rate                       : 96.0 kb/s
Channel(s)                     : 2 channels
Channel layout                 : L R
Sampling rate                  : 48.0 kHz
Frame rate                     : 46.875 FPS (1024 SPF)
Compression mode               : Lossy
Delay relative to video        : -21 ms
Stream size                    : 75.6 MiB (8%)
Title                          : GOPI SAHI
Language                       : English
Default                        : No
Forced                         : No

Text #1
ID                             : 4
Format                         : PGS
Muxing mode                    : zlib
Codec ID                       : S_HDMV/PGS
Codec ID/Info                  : Picture based subtitle format used on BDs/HD-DVDs
Duration                       : 1 h 48 min
Bit rate                       : 65.5 kb/s
Count of elements              : 3652
Stream size                    : 51.0 MiB (6%)
Title                          : GOPI SAHI
Language                       : Hindi
Default                        : Yes
Forced                         : Yes

Text #2
ID                             : 5
Format                         : PGS
Muxing mode                    : zlib
Codec ID                       : S_HDMV/PGS
Codec ID/Info                  : Picture based subtitle format used on BDs/HD-DVDs
Duration                       : 1 h 47 min
Bit rate                       : 89.9 kb/s
Count of elements              : 4278
Stream size                    : 69.0 MiB (8%)
Title                          : GOPI SAHI
Language                       : English
Default                        : No
Forced                         : No

Menu
00:00:00.000                   : :Chapter 1
00:04:13.795                   : :Chapter 2
00:08:39.227                   : :Chapter 3
00:13:51.122                   : :Chapter 4
00:18:04.041                   : :Chapter 5
00:25:38.328                   : :Chapter 6
00:29:25.138                   : :Chapter 7
00:33:52.781                   : :Chapter 8
00:42:03.521                   : :Chapter 9
00:47:46.947                   : :Chapter 10
00:54:15.210                   : :Chapter 11
00:59:24.436                   : :Chapter 12
01:02:49.391                   : :Chapter 13
01:05:41.146                   : :Chapter 14
01:09:55.400                   : :Chapter 15
01:17:11.502                   : :Chapter 16
01:20:03.674                   : :Chapter 17
01:22:22.855                   : :Chapter 18
01:24:27.563                   : :Chapter 19
01:27:52.851                   : :Chapter 20
01:32:35.633                   : :Chapter 21
01:38:17.433                   : :Chapter 22
01:41:13.192                   : :Chapter 23
01:45:45.464                   : :Chapter 24




 MAGNET

TORRENT

TORRENT 2 ZIP FILE

GDRIVE FILE COPY

DWONLOAD AUTO START IN 20 SEC ZIP FILE

DOSYA


DOWNLOAD AND ONLINE DOBOX LINK = PASSWORD = 6iqt

MULTIUP

MEDIAFIRE

ONLINE 720P