Knight and Day 2010 Extended x264 720p Esub BluRay Dual Audio English Hindi THE GOPI SAHI

Knight and Day (2010)

PG-13 | | Action, Adventure, Comedy | 23 June 2010 (USA)
 
 
A young woman gets mixed up with a disgraced spy who is trying to clear his name.
EN

Director:

James Mangold

Writer:

Patrick O'Neill
 
6.3/10
180,965
Directed byJames Mangold
Produced by
Written byPatrick O'Neill
Starring
Music byJohn Powell
CinematographyPhedon Papamichael
Edited by
Production
companies
Distributed by20th Century Fox
Release date
  • June 16, 2010 (Seville)
  • June 23, 2010 (United States)
Running time
109 minutes[1]
CountryUnited States
LanguageEnglish
Budget$117 million[2]
Box office$262 million[2]

 

 



Knight and Day 2010 Extended x264 720p Esub BluRay Dual Audio English Hindi THE GOPI SAHI


Format                         : Matroska
Format version                 : Version 4
File size                      : 942 MiB
Duration                       : 1 h 57 min
Overall bit rate               : 1 125 kb/s
Movie name                     : Knight and Day 2010 1080p Extended GOPI SAHI
Encoded date                   : UTC 2021-03-04 09:50:13
Writing application            : mkvmerge v52.0.0 ('Secret For The Mad') 64-bit
Writing library                : libebml v1.4.1 + libmatroska v1.6.2
Attachments                    : Hammer Logo.jpg

Video
ID                             : 1
Format                         : AVC
Format/Info                    : Advanced Video Codec
Format profile                 : [email protected]
Format settings                : CABAC / 5 Ref Frames
Format settings, CABAC         : Yes
Format settings, Reference fra : 5 frames
Codec ID                       : V_MPEG4/ISO/AVC
Duration                       : 1 h 57 min
Bit rate                       : 899 kb/s
Width                          : 1 280 pixels
Height                         : 534 pixels
Display aspect ratio           : 2.40:1
Frame rate mode                : Constant
Frame rate                     : 23.976 (24000/1001) FPS
Color space                    : YUV
Chroma subsampling             : 4:2:0
Bit depth                      : 8 bits
Scan type                      : Progressive
Bits/(Pixel*Frame)             : 0.055
Stream size                    : 753 MiB (80%)
Title                          : GOPI SAHI
Writing library                : x264 core 157 r2935 545de2f


Audio #1
ID                             : 2
Format                         : AAC LC
Format/Info                    : Advanced Audio Codec Low Complexity
Codec ID                       : A_AAC-2
Duration                       : 1 h 57 min
Bit rate                       : 96.0 kb/s
Channel(s)                     : 2 channels
Channel layout                 : L R
Sampling rate                  : 48.0 kHz
Frame rate                     : 46.875 FPS (1024 SPF)
Compression mode               : Lossy
Delay relative to video        : -21 ms
Stream size                    : 80.8 MiB (9%)
Title                          : GOPI SAHI
Language                       : Hindi
Default                        : Yes
Forced                         : No

Audio #2
ID                             : 3
Format                         : AAC LC
Format/Info                    : Advanced Audio Codec Low Complexity
Codec ID                       : A_AAC-2
Duration                       : 1 h 57 min
Bit rate                       : 96.0 kb/s
Channel(s)                     : 2 channels
Channel layout                 : L R
Sampling rate                  : 48.0 kHz
Frame rate                     : 46.875 FPS (1024 SPF)
Compression mode               : Lossy
Delay relative to video        : -21 ms
Stream size                    : 80.8 MiB (9%)
Title                          : GOPI SAHI
Language                       : English
Default                        : No
Forced                         : No

Text #1
ID                             : 4
Format                         : PGS
Muxing mode                    : zlib
Codec ID                       : S_HDMV/PGS
Codec ID/Info                  : Picture based subtitle format used on BDs/HD-DVDs
Duration                       : 1 h 51 min
Bit rate                       : 50.7 kb/s
Count of elements              : 2696
Stream size                    : 40.2 MiB (4%)
Title                          : GOPI SAHI
Language                       : English
Default                        : Yes
Forced                         : No

Text #2
ID                             : 5
Format                         : PGS
Muxing mode                    : zlib
Codec ID                       : S_HDMV/PGS
Codec ID/Info                  : Picture based subtitle format used on BDs/HD-DVDs
Duration                       : 1 h 55 min
Bit rate                       : 32.7 kb/s
Count of elements              : 2708
Stream size                    : 27.1 MiB (3%)
Title                          : GOPI SAHI
Language                       : English
Default                        : No
Forced                         : No

 



 

MAGNET

TORRENT

TORRENT 2 ZIP FILE

GDRIVE FILE COPY

DWONLOAD AUTO START IN 20 SEC ZIP FILE

DOSYA

DOWNLOAD AND ONLINE DOBOX LINK = PASSWORD = 5quk

MULTIUP

MEDIAFIRE

ONLINE 720P