Holiday In The Wild 2019 x264 720p WebHD Esub Dual Audio English Hindi THE GOPI SAHI

 

Holiday in the Wild (2019)

Christmas in the Wild (original title)
TV-PG | | Comedy, Drama, Romance | 1 November 2019 (USA)
 
 
Jilted by her husband on the eve of embarking on an African safari, a woman travels to the continent alone where she meets an elephant conservationist.
EN

Director:

Ernie Barbarash

Writers:

Neal H. Dobrofsky (as Neil Dobrofsky), Tippi Dobrofsky
 
6.1/10
12,354

 



 Holiday In The Wild 2019 x264 720p WebHD Esub Dual Audio English Hindi THE GOPI SAHI

Format                         : Matroska
Format version                 : Version 4
File size                      : 673 MiB
Duration                       : 1 h 26 min
Overall bit rate               : 1 093 kb/s
Movie name                     : HOLIDAY IN THE WILD 2019 GOPISAHI
Encoded date                   : UTC 2019-11-03 02:09:16
Writing application            : mkvmerge v35.0.0 ('All The Love In The World') 64-bit
Writing library                : libebml v1.3.9 + libmatroska v1.5.2

Video
ID                             : 1
Format                         : AVC
Format/Info                    : Advanced Video Codec
Format profile                 : [email protected]
Format settings                : CABAC / 9 Ref Frames
Format settings, CABAC         : Yes
Format settings, Reference fra : 9 frames
Codec ID                       : V_MPEG4/ISO/AVC
Duration                       : 1 h 26 min
Bit rate                       : 899 kb/s
Width                          : 1 280 pixels
Height                         : 720 pixels
Display aspect ratio           : 16:9
Frame rate mode                : Constant
Frame rate                     : 23.976 (24000/1001) FPS
Color space                    : YUV
Chroma subsampling             : 4:2:0
Bit depth                      : 8 bits
Scan type                      : Progressive
Bits/(Pixel*Frame)             : 0.041
Stream size                    : 551 MiB (82%)
Title                          : GOPISAHI
Writing library                : x264 core 157 r2935 545de2f

Audio #1
ID                             : 2
Format                         : AAC LC
Format/Info                    : Advanced Audio Codec Low Complexity
Codec ID                       : A_AAC-2
Duration                       : 1 h 26 min
Bit rate                       : 96.0 kb/s
Channel(s)                     : 2 channels
Channel layout                 : L R
Sampling rate                  : 48.0 kHz
Frame rate                     : 46.875 FPS (1024 SPF)
Compression mode               : Lossy
Delay relative to video        : -21 ms
Stream size                    : 58.8 MiB (9%)
Title                          : GOPISAHI
Language                       : Hindi
Default                        : Yes
Forced                         : No

Audio #2
ID                             : 3
Format                         : AAC LC
Format/Info                    : Advanced Audio Codec Low Complexity
Codec ID                       : A_AAC-2
Duration                       : 1 h 26 min
Bit rate                       : 96.0 kb/s
Channel(s)                     : 2 channels
Channel layout                 : L R
Sampling rate                  : 48.0 kHz
Frame rate                     : 46.875 FPS (1024 SPF)
Compression mode               : Lossy
Delay relative to video        : -21 ms
Stream size                    : 58.8 MiB (9%)
Title                          : GOPISAHI
Language                       : English
Default                        : No
Forced                         : No

Subtitle: UTF-8 [S: GOPISAHI [eng] (subrip) [default]]
Subtitle: UTF-8 [S: GOPISAHI [jpn] (subrip)]
Subtitle: UTF-8 [S: GOPISAHI [nor] (subrip)]
Subtitle: UTF-8 [S: GOPISAHI [cze] (subrip)]
Subtitle: UTF-8 [S: Brazilian Portuguese GOPISAHI [por] (subrip)]
Subtitle: UTF-8 [S: GOPISAHI [por] (subrip)]
Subtitle: UTF-8 [S: GOPISAHI [kor] (subrip)]
Subtitle: UTF-8 [S: GOPISAHI [heb] (subrip)]
Subtitle: UTF-8 [S: GOPISAHI [tha] (subrip)]
Subtitle: UTF-8 [S: GOPISAHI [swe] (subrip)]
Subtitle: UTF-8 [S: GOPISAHI [fin] (subrip)]
Subtitle: UTF-8 [S: GOPISAHI [pol] (subrip)]
Subtitle: UTF-8 [S: GOPISAHI [hin] (subrip)]
Subtitle: UTF-8 [S: GOPISAHI [ara] (subrip)]
Subtitle: UTF-8 [S: GOPISAHI [spa] (subrip)]
Subtitle: UTF-8 [S: GOPISAHI [gre] (subrip)]
Subtitle: UTF-8 [S: GOPISAHI [fre] (subrip)]
Subtitle: UTF-8 [S: GOPISAHI [ita] (subrip)]
Subtitle: UTF-8 [S: GOPISAHI [vie] (subrip)]
Subtitle: UTF-8 [S: European Spanish GOPISAHI [spa] (subrip)]
Subtitle: UTF-8 [S: GOPISAHI [hun] (subrip)]
Subtitle: UTF-8 [S: GOPISAHI [dut] (subrip)]
Subtitle: UTF-8 [S: Traditional Chinese GOPISAHI [chi] (subrip)]
Subtitle: UTF-8 [S: GOPISAHI [tur] (subrip)]
Subtitle: UTF-8 [S: GOPISAHI [rum] (subrip)]
Subtitle: UTF-8 [S: GOPISAHI [ind] (subrip)]
Subtitle: UTF-8 [S: Simplified Chinese GOPISAHI [chi] (subrip)]
Subtitle: UTF-8 [S: GOPISAHI [ger] (subrip)]
Subtitle: UTF-8 [S: GOPISAHI [rus] (subrip)]
Subtitle: UTF-8 [S: GOPISAHI [dan] (subrip)]
Subtitle: UTF-8 [S: No subtitles]