Ford V Ferrari 2019 x264 720p BluRay Dual Audio English Hindi THE GOPI SAHI

Ford v Ferrari (2019)

 
 
American car designer Carroll Shelby and driver Ken Miles battle corporate interference and the laws of physics to build a revolutionary race car for Ford in order to defeat Ferrari at the 24 Hours of Le Mans in 1966.
EN

Director:

James Mangold
 
 
8.1/10
297,170

 

Directed byJames Mangold
Produced by
Written by
Starring
Music by
CinematographyPhedon Papamichael
Edited by
Production
companies
Distributed by20th Century Fox
Release date
  • August 30, 2019 (Telluride)
  • November 15, 2019 (United States)
Running time
152 minutes[1]
CountryUnited States
LanguagesEnglish
Italian
Budget$97.6 million[2]
Box office$225.5 million[3][2]

 


Ford V Ferrari 2019 x264 720p BluRay Dual Audio English Hindi THE GOPI SAHI


Format                         : Matroska
Format version                 : Version 4
File size                      : 1.17 GiB
Duration                       : 2 h 32 min
Overall bit rate               : 1 094 kb/s
Movie name                     : Ford V Ferrari 2019 GOPISAHI
Encoded date                   : UTC 2020-02-03 14:26:36

ID                             : 1
Format                         : AVC
Format/Info                    : Advanced Video Codec
Format profile                 : [email protected]
Format settings                : CABAC / 12 Ref Frames
Format settings, CABAC         : Yes
Format settings, Reference fra : 12 frames
Codec ID                       : V_MPEG4/ISO/AVC
Duration                       : 2 h 32 min
Bit rate                       : 899 kb/s
Width                          : 1 280 pixels
Height                         : 536 pixels
Display aspect ratio           : 2.40:1
Frame rate mode                : Constant
Frame rate                     : 23.976 (24000/1001) FPS
Color space                    : YUV
Chroma subsampling             : 4:2:0
Bit depth                      : 8 bits
Scan type                      : Progressive
Bits/(Pixel*Frame)             : 0.055
Stream size                    : 980 MiB (82%)
Title                          : GOPISAHI
Writing library                : x264 core 157 r2935 545de2f

Audio #1
ID                             : 2
Format                         : AAC LC
Format/Info                    : Advanced Audio Codec Low Complexity
Codec ID                       : A_AAC-2
Duration                       : 2 h 32 min
Bit rate                       : 96.0 kb/s
Channel(s)                     : 2 channels
Channel layout                 : L R
Sampling rate                  : 48.0 kHz
Frame rate                     : 46.875 FPS (1024 SPF)
Compression mode               : Lossy
Delay relative to video        : -7 ms
Stream size                    : 105 MiB (9%)
Title                          : GOPISAHI
Language                       : Hindi
Default                        : Yes
Forced                         : No

Audio #2
ID                             : 3
Format                         : AAC LC
Format/Info                    : Advanced Audio Codec Low Complexity
Codec ID                       : A_AAC-2
Duration                       : 2 h 32 min
Bit rate                       : 96.0 kb/s
Channel(s)                     : 2 channels
Channel layout                 : L R
Sampling rate                  : 48.0 kHz
Frame rate                     : 46.875 FPS (1024 SPF)
Compression mode               : Lossy
Delay relative to video        : -27 ms
Stream size                    : 105 MiB (9%)
Title                          : GOPISAHI
Language                       : English
Default                        : No
Forced                         : No




MAGNET

TORRENT

TORRENT 2 ZIP FILE

GDRIVE FILE COPY

DWONLOAD AUTO START IN 20 SEC ZIP FILE

DOBOX LINK = PASSWORD = 692x

MULTIUP

MEDIAFIRE

ONLINE 720P