Fifty Shades of Grey 2015 Theatrical x264 720p Esub BluRay Dual Audio English Hindi THE GOPI SAHI

Fifty Shades of Grey (2015)

 
 
Literature student Anastasia Steele's life changes forever when she meets handsome, yet tormented, billionaire Christian Grey.
EN

Director:

Sam Taylor-Johnson

Writers:

Kelly Marcel (screenplay by), E.L. James (based on the novel by)
 
4.1/10
299,363

 

 

Directed bySam Taylor-Johnson
Produced by
Screenplay byKelly Marcel
Based onFifty Shades of Grey
by E. L. James
Starring
Music byDanny Elfman
CinematographySeamus McGarvey
Edited by
Production
companies
Distributed byUniversal Pictures[1]
Release date
  • February 9, 2015 (Los Angeles)
  • February 13, 2015 (United States)
Running time
128 minutes[2]
CountryUnited States
LanguageEnglish
Budget$40 million[3]
Box office$569.7 million[3]

 


Fifty Shades of Grey 2015 Theatrical x264 720p Esub BluRay Dual Audio English Hindi THE GOPI SAHI

Format                         : Matroska
Format version                 : Version 4
File size                      : 980 MiB
Duration                       : 2 h 5 min
Overall bit rate               : 1 094 kb/s
Movie name                     : Fifty Shades of Grey 2015 Theatrical GOPI SAHI
Encoded date                   : UTC 2021-03-25 04:09:48

Video
ID                             : 1
Format                         : AVC
Format/Info                    : Advanced Video Codec
Format profile                 : [email protected]
Format settings                : CABAC / 5 Ref Frames
Format settings, CABAC         : Yes
Format settings, Reference fra : 5 frames
Codec ID                       : V_MPEG4/ISO/AVC
Duration                       : 2 h 5 min
Bit rate                       : 899 kb/s
Width                          : 1 280 pixels
Height                         : 534 pixels
Display aspect ratio           : 2.40:1
Frame rate mode                : Constant
Frame rate                     : 23.976 (24000/1001) FPS
Color space                    : YUV
Chroma subsampling             : 4:2:0
Bit depth                      : 8 bits
Scan type                      : Progressive
Bits/(Pixel*Frame)             : 0.055
Stream size                    : 805 MiB (82%)
Title                          : GOPI SAHI
Writing library                : x264 core 157 r2935 545de2f

Audio #1
ID                             : 2
Format                         : AAC LC
Format/Info                    : Advanced Audio Codec Low Complexity
Codec ID                       : A_AAC-2
Duration                       : 2 h 5 min
Bit rate                       : 96.0 kb/s
Channel(s)                     : 2 channels
Channel layout                 : L R
Sampling rate                  : 48.0 kHz
Frame rate                     : 46.875 FPS (1024 SPF)
Compression mode               : Lossy
Delay relative to video        : 2 s 529 ms
Stream size                    : 86.3 MiB (9%)
Title                          : GOPI SAHI
Language                       : Hindi
Default                        : Yes
Forced                         : No

Audio #2
ID                             : 3
Format                         : AAC LC
Format/Info                    : Advanced Audio Codec Low Complexity
Codec ID                       : A_AAC-2
Duration                       : 2 h 5 min
Bit rate                       : 96.0 kb/s
Channel(s)                     : 2 channels
Channel layout                 : L R
Sampling rate                  : 48.0 kHz
Frame rate                     : 46.875 FPS (1024 SPF)
Compression mode               : Lossy
Delay relative to video        : -21 ms
Stream size                    : 86.3 MiB (9%)
Title                          : GOPI SAHI
Language                       : English
Default                        : No
Forced                         : No

Text
ID                             : 4
Format                         : UTF-8
Codec ID                       : S_TEXT/UTF8
Codec ID/Info                  : UTF-8 Plain Text
Duration                       : 2 h 4 min
Bit rate                       : 64 b/s
Count of elements              : 1661
Stream size                    : 59.0 KiB (0%)
Title                          : GOPI SAHI
Language                       : English
Default                        : Yes
Forced                         : No

 




 MAGNET

TORRENT

TORRENT 2 ZIP FILE

GDRIVE FILE COPY

DWONLOAD AUTO START IN 20 SEC ZIP FILE

DOSYA

DOWNLOAD AND ONLINE DOBOX LINK = PASSWORD = ntq5

MULTIUP

MEDIAFIRE

ONLINE 720P