Changeling 2008 x264 720p Esub BluRay Dual Audio English Hindi GOPI SAHI

Changeling (2008)

 

Grief-stricken mother Christine Collins (Angelina Jolie) takes on the L.A.P.D. to her own detriment when it tries to pass off an obvious impostor as her missing child.
EN

Director:

Clint Eastwood
 
7.7/10

235,934

Directed byClint Eastwood
Produced by
Written byJ. Michael Straczynski
Starring
Music byClint Eastwood
CinematographyTom Stern
Edited by
Production
companies
Distributed byUniversal Studios
Release date
‹See TfM›
  • October 24, 2008
Running time
142 minutes
CountryUnited States
LanguageEnglish
Budget$55 million
Box office$113.4 million

 

Changeling 2008 x264 720p Esub BluRay Dual Audio English Hindi GOPI SAHI


Format                         : Matroska
Format version                 : Version 4
File size                      : 1.11 GiB
Duration                       : 2 h 21 min
Overall bit rate               : 1 123 kb/s
Movie name                     : Changeling 2008 GOPI SAHI
Encoded date                   : UTC 2020-10-31 08:20:55

Video
ID                             : 1
Format                         : AVC
Format/Info                    : Advanced Video Codec
Format profile                 : [email protected]
Format settings                : CABAC / 5 Ref Frames
Format settings, CABAC         : Yes
Format settings, Reference fra : 5 frames
Codec ID                       : V_MPEG4/ISO/AVC
Duration                       : 2 h 21 min
Bit rate                       : 899 kb/s
Width                          : 1 280 pixels
Height                         : 534 pixels
Display aspect ratio           : 2.40:1
Frame rate mode                : Constant
Frame rate                     : 23.976 (24000/1001) FPS
Color space                    : YUV
Chroma subsampling             : 4:2:0
Bit depth                      : 8 bits
Scan type                      : Progressive
Bits/(Pixel*Frame)             : 0.055
Stream size                    : 912 MiB (80%)
Title                          : GOPI SAHI
Writing library                : x264 core 157 r2935 545de2f

Audio #1
ID                             : 2
Format                         : AAC LC
Format/Info                    : Advanced Audio Codec Low Complexity
Codec ID                       : A_AAC-2
Duration                       : 2 h 21 min
Bit rate                       : 96.0 kb/s
Channel(s)                     : 2 channels
Channel layout                 : L R
Sampling rate                  : 48.0 kHz
Frame rate                     : 46.875 FPS (1024 SPF)
Compression mode               : Lossy
Delay relative to video        : 4 s 50 ms
Stream size                    : 97.7 MiB (9%)
Title                          : GOPI SAHI
Language                       : Hindi
Default                        : Yes
Forced                         : No

Audio #2
ID                             : 3
Format                         : AAC LC
Format/Info                    : Advanced Audio Codec Low Complexity
Codec ID                       : A_AAC-2
Duration                       : 2 h 21 min
Bit rate                       : 96.0 kb/s
Channel(s)                     : 2 channels
Channel layout                 : L R
Sampling rate                  : 48.0 kHz
Frame rate                     : 46.875 FPS (1024 SPF)
Compression mode               : Lossy
Delay relative to video        : -21 ms
Stream size                    : 97.8 MiB (9%)
Title                          : GOPI SAHI
Language                       : English
Default                        : No
Forced                         : No

Text #1
ID                             : 4
Format                         : PGS
Muxing mode                    : zlib
Codec ID                       : S_HDMV/PGS
Codec ID/Info                  : Picture based subtitle format used on BDs/HD-DVDs
Duration                       : 2 h 20 min
Bit rate                       : 27.8 kb/s
Count of elements              : 3822
Stream size                    : 28.0 MiB (2%)
Title                          : GOPI SAHI
Language                       : Hindi
Default                        : Yes
Forced                         : Yes

Text #2
ID                             : 5
Format                         : PGS
Muxing mode                    : zlib
Codec ID                       : S_HDMV/PGS
Codec ID/Info                  : Picture based subtitle format used on BDs/HD-DVDs
Duration                       : 2 h 14 min
Bit rate                       : 49.4 kb/s
Count of elements              : 4300
Stream size                    : 47.4 MiB (4%)
Title                          : GOPI SAHI
Language                       : English
Default                        : No
Forced                         : No

Menu
00:00:00.000                   : :Chapter 1
00:06:30.056                   : :Chapter 2
00:13:57.003                   : :Chapter 3
00:18:37.617                   : :Chapter 4
00:27:02.579                   : :Chapter 5
00:36:52.085                   : :Chapter 6
00:43:20.473                   : :Chapter 7
00:50:51.090                   : :Chapter 8
00:57:18.352                   : :Chapter 9
01:06:05.587                   : :Chapter 10
01:14:26.587                   : :Chapter 11
01:21:41.438                   : :Chapter 12
01:28:25.258                   : :Chapter 13
01:32:27.167                   : :Chapter 14
01:38:30.488                   : :Chapter 15
01:46:41.729                   : :Chapter 16
01:55:12.155                   : :Chapter 17
02:01:36.206                   : :Chapter 18
02:08:14.103                   : :Chapter 19
02:14:39.655                   : :Chapter 20

 

 

MAGNET

TORRENT

TORRENT 2 ZIP FILE


GDRIVE FILE COPY

DWONLOAD AUTO START IN 20 SEC ZIP FILE


DOWNLOAD AND ONLINE DOBOX LINK = PASSWORD = q4mj

MULTIUP


MEDIAFIRE


ONLINE 720P