Broken City 2013 x264 720p Esub BluRay Dual Audio English Hindi THE GOPI SAHI

Broken City (2013)

 
 
In a city rife with injustice, ex-cop Billy Taggart seeks redemption and revenge after being double-crossed and then framed by its most powerful figure: Mayor Nicholas Hostetler.
EN

Director:

Allen Hughes

Writer:

Brian Tucker
 
6.2/10
76,471
Directed byAllen Hughes
Produced by
Written byBrian Tucker
Starring
Music by
CinematographyBen Seresin
Edited byCindy Mollo
Production
companies
Distributed by20th Century Fox
Release date
  • January 18, 2013
Running time
108 minutes
CountryUnited States
LanguageEnglish
Budget$35–56.8 million[1][2]
Box office$34.7 million[1]

 

 Broken City 2013 x264 720p Esub BluRay Dual Audio English Hindi THE GOPI SAHI

Format                         : Matroska
Format version                 : Version 4
File size                      : 851 MiB
Duration                       : 1 h 48 min
Overall bit rate               : 1 094 kb/s
Movie name                     : Broken City 2013 GOPI SAHI
Encoded date                   : UTC 2021-03-01 10:39:29
Writing application            : mkvmerge v52.0.0 ('Secret For The Mad') 64-bit
Writing library                : libebml v1.4.1 + libmatroska v1.6.2

Video
ID                             : 1
Format                         : AVC
Format/Info                    : Advanced Video Codec
Format profile                 : [email protected]
Format settings                : CABAC / 5 Ref Frames
Format settings, CABAC         : Yes
Format settings, Reference fra : 5 frames
Codec ID                       : V_MPEG4/ISO/AVC
Duration                       : 1 h 48 min
Bit rate                       : 899 kb/s
Width                          : 1 280 pixels
Height                         : 532 pixels
Display aspect ratio           : 2.40:1
Frame rate mode                : Constant
Frame rate                     : 23.976 (24000/1001) FPS
Color space                    : YUV
Chroma subsampling             : 4:2:0
Bit depth                      : 8 bits
Scan type                      : Progressive
Bits/(Pixel*Frame)             : 0.055
Stream size                    : 698 MiB (82%)
Title                          : GOPI SAHI
Writing library                : x264 core 157 r2935 545de2f

Audio #1
ID                             : 2
Format                         : AAC LC
Format/Info                    : Advanced Audio Codec Low Complexity
Codec ID                       : A_AAC-2
Duration                       : 1 h 48 min
Bit rate                       : 96.0 kb/s
Channel(s)                     : 2 channels
Channel layout                 : L R
Sampling rate                  : 48.0 kHz
Frame rate                     : 46.875 FPS (1024 SPF)
Compression mode               : Lossy
Delay relative to video        : -26 ms
Stream size                    : 75.0 MiB (9%)
Title                          : GOPI SAHI
Language                       : Hindi
Default                        : Yes
Forced                         : No

Audio #2
ID                             : 3
Format                         : AAC LC
Format/Info                    : Advanced Audio Codec Low Complexity
Codec ID                       : A_AAC-2
Duration                       : 1 h 48 min
Bit rate                       : 96.0 kb/s
Channel(s)                     : 2 channels
Channel layout                 : L R
Sampling rate                  : 48.0 kHz
Frame rate                     : 46.875 FPS (1024 SPF)
Compression mode               : Lossy
Delay relative to video        : -26 ms
Stream size                    : 75.0 MiB (9%)
Title                          : GOPI SAHI
Language                       : English
Default                        : No
Forced                         : No

Text
ID                             : 4
Language                       : English


Menu
00:00:00.005                   : :Chapter 1
00:02:23.899                   : :Chapter 2
00:07:27.786                   : :Chapter 3
00:10:58.121                   : :Chapter 4
00:14:28.164                   : :Chapter 5
00:20:49.044                   : :Chapter 6
00:24:21.840                   : :Chapter 7
00:25:50.596                   : :Chapter 8
00:29:54.214                   : :Chapter 9
00:31:55.127                   : :Chapter 10
00:35:32.844                   : :Chapter 11
00:37:39.053                   : :Chapter 12
00:40:37.440                   : :Chapter 13
00:46:11.607                   : :Chapter 14
00:50:47.883                   : :Chapter 15
00:55:03.639                   : :Chapter 16
01:00:58.493                   : :Chapter 17
01:04:27.827                   : :Chapter 18
01:08:01.541                   : :Chapter 19
01:10:17.135                   : :Chapter 20
01:15:12.263                   : :Chapter 21
01:18:01.140                   : :Chapter 22
01:23:21.084                   : :Chapter 23
01:27:34.421                   : :Chapter 24
01:35:52.126                   : :Chapter 25
01:38:00.671                   : :Chapter 26
01:40:29.403                   : :Chapter 27
01:42:36.447                   : :Chapter 28

 




 MAGNET

TORRENT

TORRENT 2 ZIP FILE

GDRIVE FILE COPY

DWONLOAD AUTO START IN 20 SEC ZIP FILE

DOSYA

DOWNLOAD AND ONLINE DOBOX LINK = PASSWORD = js1w

MULTIUP

MEDIAFIRE

ONLINE 720P