The Rule 2021 WebHD x264 720p Punjabi GOPI SAHI




The Rule 2021 WebHD x264 720p Punjabi GOPI SAHI

Format                         : Matroska
Format version                 : Version 4
File size                      : 461 MiB
Duration                       : 1 h 5 min
Overall bit rate               : 989 kb/s
Movie name                     : The Rule 2021 GOPI SAHI
Encoded date                   : UTC 2021-02-09 12:43:29

Video
ID                             : 1
Format                         : AVC
Format/Info                    : Advanced Video Codec
Format profile                 : [email protected]
Format settings                : CABAC / 5 Ref Frames
Format settings, CABAC         : Yes
Format settings, Reference fra : 5 frames
Codec ID                       : V_MPEG4/ISO/AVC
Duration                       : 1 h 5 min
Bit rate                       : 899 kb/s
Width                          : 1 280 pixels
Height                         : 548 pixels
Display aspect ratio           : 2.35:1
Frame rate mode                : Constant
Frame rate                     : 25.000 FPS
Color space                    : YUV
Chroma subsampling             : 4:2:0
Bit depth                      : 8 bits
Scan type                      : Progressive
Bits/(Pixel*Frame)             : 0.051
Stream size                    : 419 MiB (91%)
Title                          : GOPI SAHI
Writing library                : x264 core 157 r2935 545de2f

Audio
ID                             : 2
Format                         : AAC LC
Format/Info                    : Advanced Audio Codec Low Complexity
Codec ID                       : A_AAC-2
Duration                       : 1 h 5 min
Bit rate                       : 88.6 kb/s
Channel(s)                     : 2 channels
Channel layout                 : L R
Sampling rate                  : 44.1 kHz
Frame rate                     : 43.066 FPS (1024 SPF)
Compression mode               : Lossy
Delay relative to video        : -23 ms
Stream size                    : 41.2 MiB (9%)
Title                          : GOPI SAHI
Language                       : Panjabi
Default                        : Yes
Forced                         : No




 MAGNET

TORRENT

GDRIVE FILE COPY

DWONLOAD AUTO START IN 20 SEC

ONLINE 720P

MULTIUP

MEDIAFIRE