The Interpreter 2005 x264 720p Esub BluRay Dual Audio English Hindi THE GOPI SAHI

The Interpreter (2005)

 
 
Political intrigue and deception unfold inside the United Nations, where a U.S. Secret Service agent is assigned to investigate an interpreter who overhears an assassination plot.
EN

Director:

Sydney Pollack

Writers:

Martin Stellman (story), Brian Ward (story) | 3 more credits »
 
6.4/10
97,983
Directed bySydney Pollack
Produced byTim Bevan
Eric Fellner
Kevin Misher
Screenplay byCharles Randolph
Scott Frank
Steven Zaillian
Story byMartin Stellman
Brian Ward
David Rayfiel (uncredited)
StarringNicole Kidman
Sean Penn
Catherine Keener
Music byJames Newton Howard
CinematographyDarius Khondji
Edited byWilliam Steinkamp
Production
companies
Distributed byUnited International Pictures (United Kingdom/Germany)
Universal Pictures (United States)
Mars Distribution (France)
Release date
  • 8 April 2005 (Greece)
  • 15 April 2005 (United Kingdom)
  • 22 April 2005 (United States)
Running time
108 minutes
CountriesUnited Kingdom
United States
France
Germany
LanguagesEnglish
Ku
Budget$80 million
Box office$162.9 million


 The Interpreter 2005 x264 720p Esub BluRay Dual Audio English Hindi THE GOPI SAHI

Format                         : Matrosk
Format version                 : Version 4
File size                      : 1 015 MiB
Duration                       : 2 h 8 min
Overall bit rate               : 1 105 kb/s
Movie name                     : The Interpreter 2005 GOPI SAHI
Encoded date                   : UTC 2021-02-25 03:58:57
Writing application            : mkvmerge v52.0.0 ('Secret For The Mad') 64-bit
Writing library                : libebml v1.4.1 + libmatroska v1.6.2
Attachments                    : Hammer Logo.jpg

Video
ID                             : 1
Format                         : AVC
Format/Info                    : Advanced Video Codec
Format profile                 : [email protected]
Format settings                : CABAC / 5 Ref Frames
Format settings, CABAC         : Yes
Format settings, Reference fra : 5 frames
Codec ID                       : V_MPEG4/ISO/AVC
Duration                       : 2 h 8 min
Bit rate                       : 899 kb/s
Width                          : 1 280 pixels
Height                         : 544 pixels
Display aspect ratio           : 2.35:1
Frame rate mode                : Constant
Frame rate                     : 23.976 (24000/1001) FPS
Color space                    : YUV
Chroma subsampling             : 4:2:0
Bit depth                      : 8 bits
Scan type                      : Progressive
Bits/(Pixel*Frame)             : 0.054
Stream size                    : 825 MiB (81%)
Title                          : GOPI SAHI
Writing library                : x264 core 157 r2935 545de2f

Audio #1
ID                             : 2
Format                         : AAC LC
Format/Info                    : Advanced Audio Codec Low Complexity
Codec ID                       : A_AAC-2
Duration                       : 2 h 8 min
Bit rate                       : 96.0 kb/s
Channel(s)                     : 2 channels
Channel layout                 : L R
Sampling rate                  : 48.0 kHz
Frame rate                     : 46.875 FPS (1024 SPF)
Compression mode               : Lossy
Stream size                    : 88.5 MiB (9%)
Title                          : GOPI SAHI
Language                       : Hindi
Default                        : Yes
Forced                         : No

Audio #2
ID                             : 3
Format                         : AAC LC
Format/Info                    : Advanced Audio Codec Low Complexity
Codec ID                       : A_AAC-2
Duration                       : 2 h 8 min
Bit rate                       : 96.0 kb/s
Channel(s)                     : 2 channels
Channel layout                 : L R
Sampling rate                  : 48.0 kHz
Frame rate                     : 46.875 FPS (1024 SPF)
Compression mode               : Lossy
Delay relative to video        : -21 ms
Stream size                    : 88.5 MiB (9%)
Title                          : GOPI SAHI
Language                       : English
Default                        : No
Forced                         : No

Text #1
ID                             : 4
Format                         : UTF-8
Codec ID                       : S_TEXT/UTF8
Codec ID/Info                  : UTF-8 Plain Text
Duration                       : 2 h 6 min
Bit rate                       : 134 b/s
Count of elements              : 1523
Stream size                    : 125 KiB (0%)
Title                          : GOPI SAHI
Language                       : Hindi
Default                        : Yes
Forced                         : No

Text #2
ID                             : 5
Format                         : PGS
Muxing mode                    : zlib
Codec ID                       : S_HDMV/PGS
Codec ID/Info                  : Picture based subtitle format used on BDs/HD-DVDs
Duration                       : 2 h 2 min
Bit rate                       : 36.8 kb/s
Count of elements              : 3266
Stream size                    : 32.2 MiB (3%)
Title                          : GOPI SAHI
Language                       : English
Default                        : No
Forced                         : No




 MAGNET

TORRENT


TORRENT 2 ZIP FILE

GDRIVE FILE COPY

DWONLOAD AUTO START IN 20 SEC ZIP FILE

DOSYA

DOBOX LINK = PASSWORD = pbbn

MULTIUP

MEDIFIRE


ONLINE 720P