Searching for Bobby Fischer 1993 x264 720p Esub BluRay Dual Audio English Hindi THE GOPI SAHI

Searching for Bobby Fischer (1993)

A prepubescent chess prodigy refuses to harden himself in order to become a champion like the famous but unlikable Bobby Fischer.
EN

Director:

Steven Zaillian

Writers:

Fred Waitzkin (book), Steven Zaillian (screenplay)
 
7.4/10
32,676

 

Directed bySteven Zaillian
Produced byWilliam Horberg
Screenplay bySteven Zaillian
Based onSearching for Bobby Fischer: The Father of a Prodigy Observes the World of Chess
by Fred Waitzkin
Starring
Music byJames Horner
CinematographyConrad L. Hall
Edited byWayne Wahrman
Distributed byParamount Pictures
Release date
  • August 11, 1993
Running time
110 minutes
CountryUnited States
LanguageEnglish
Budget$12 million[1]
Box office$7,266,383


 

Searching for Bobby Fischer 1993 x264 720p Esub BluRay Dual Audio English Hindi THE GOPI SAHI


Format                         : Matroska
Format version                 : Version 4
File size                      : 863 MiB
Duration                       : 1 h 50 min
Overall bit rate               : 1 092 kb/s
Movie name                     : Searching for Bobby Fischer 1993 GOPI SAHI
Encoded date                   : UTC 2021-02-19 10:47:26

Video
ID                             : 1
Format                         : AVC
Format/Info                    : Advanced Video Codec
Format profile                 : [email protected]
Format settings                : CABAC / 5 Ref Frames
Format settings, CABAC         : Yes
Format settings, Reference fra : 5 frames
Codec ID                       : V_MPEG4/ISO/AVC
Duration                       : 1 h 50 min
Bit rate                       : 899 kb/s
Width                          : 1 280 pixels
Height                         : 722 pixels
Display aspect ratio           : 16:9
Frame rate mode                : Constant
Frame rate                     : 23.976 (24000/1001) FPS
Color space                    : YUV
Chroma subsampling             : 4:2:0
Bit depth                      : 8 bits
Scan type                      : Progressive
Bits/(Pixel*Frame)             : 0.041
Stream size                    : 709 MiB (82%)
Title                          : GOPI SAHI
Writing library                : x264 core 157 r2935 545de2f

Audio #1
ID                             : 2
Format                         : AAC LC
Format/Info                    : Advanced Audio Codec Low Complexity
Codec ID                       : A_AAC-2
Duration                       : 1 h 50 min
Bit rate                       : 96.0 kb/s
Channel(s)                     : 2 channels
Channel layout                 : L R
Sampling rate                  : 48.0 kHz
Frame rate                     : 46.875 FPS (1024 SPF)
Compression mode               : Lossy
Delay relative to video        : -21 ms
Stream size                    : 75.9 MiB (9%)
Title                          : GOPI SAHI
Language                       : Hindi
Default                        : Yes
Forced                         : No

Audio #2
ID                             : 3
Format                         : AAC LC
Format/Info                    : Advanced Audio Codec Low Complexity
Codec ID                       : A_AAC-2
Duration                       : 1 h 50 min
Bit rate                       : 96.0 kb/s
Channel(s)                     : 2 channels
Channel layout                 : L R
Sampling rate                  : 48.0 kHz
Frame rate                     : 46.875 FPS (1024 SPF)
Compression mode               : Lossy
Delay relative to video        : -21 ms
Stream size                    : 75.9 MiB (9%)
Title                          : GOPI SAHI
Language                       : English
Default                        : No
Forced                         : No

Text
ID                             : 4
Format                         : UTF-8
Codec ID                       : S_TEXT/UTF8
Codec ID/Info                  : UTF-8 Plain Text
Duration                       : 1 h 44 min
Bit rate                       : 56 b/s
Count of elements              : 1376
Stream size                    : 43.1 KiB (0%)
Title                          : GOPI SAHI
Language                       : English
Default                        : Yes
Forced                         : No





 MAGNET

TORRENT

TORRENT 2 ZIP FILE

GDRIVE FILE COPY

DWONLOAD AUTO START IN 20 SEC ZIP FILE

DOSYA

DOBOX LINK = PASSWORD = 939f

MULTIUP

MEDIAFIRE

ONLINE 720P