News Of The World 2021 x264 720p WebHD Esub Dual Audio English Hindi GOPI SAHI

News of the World (2020)

 

A Civil War veteran agrees to deliver a girl, taken by the Kiowa people years ago, to her aunt and uncle, against her will. They travel hundreds of miles and face grave dangers as they search for a place that either can call home.
EN

Director:

Paul Greengrass

Writers:

Paul Greengrass (screenplay by), Luke Davies (screenplay by) | 1 more credit »
 
6.8/10
14,600
Directed byPaul Greengrass
Produced by
Screenplay by
Based onNews of the World
by Paulette Jiles
Starring
Music byJames Newton Howard[1]
CinematographyDariusz Wolski
Edited byWilliam Goldenberg
Production
companies
Distributed by
Release date
  • December 25, 2020 (United States)
  • February 10, 2021 (International)
Running time
118 minutes
CountryUnited States
LanguageEnglish
Budget$38 million[3]
Box office$10.9 million[4][5]

 

 

 

News Of The World 2021 x264 720p WebHD Esub Dual Audio English Hindi GOPI SAHI


Format                         : Matroska
Format version                 : Version 4
File size                      : 935 MiB
Duration                       : 1 h 59 min
Overall bit rate               : 1 093 kb/s
Movie name                     : News Of The World 2021 GOPI SAHI
Encoded date                   : UTC 2021-02-10 13:00:03

Video
ID                             : 1
Format                         : AVC
Format/Info                    : Advanced Video Codec
Format profile                 : [email protected]
Format settings                : CABAC / 5 Ref Frames
Format settings, CABAC         : Yes
Format settings, Reference fra : 5 frames
Codec ID                       : V_MPEG4/ISO/AVC
Duration                       : 1 h 59 min
Bit rate                       : 899 kb/s
Width                          : 1 280 pixels
Height                         : 536 pixels
Display aspect ratio           : 2.40:1
Frame rate mode                : Constant
Frame rate                     : 24.000 FPS
Color space                    : YUV
Chroma subsampling             : 4:2:0
Bit depth                      : 8 bits
Scan type                      : Progressive
Bits/(Pixel*Frame)             : 0.055
Stream size                    : 769 MiB (82%)
Title                          : GOPI SAHI
Writing library                : x264 core 157 r2935 545de2f

Audio #1
ID                             : 2
Format                         : AAC LC
Format/Info                    : Advanced Audio Codec Low Complexity
Codec ID                       : A_AAC-2
Duration                       : 1 h 59 min
Bit rate                       : 96.0 kb/s
Channel(s)                     : 2 channels
Channel layout                 : L R
Sampling rate                  : 48.0 kHz
Frame rate                     : 46.875 FPS (1024 SPF)
Compression mode               : Lossy
Delay relative to video        : -21 ms
Stream size                    : 81.7 MiB (9%)
Title                          : GOPI SAHI
Language                       : Hindi
Default                        : Yes
Forced                         : No

Audio #2
ID                             : 3
Format                         : AAC LC
Format/Info                    : Advanced Audio Codec Low Complexity
Codec ID                       : A_AAC-2
Duration                       : 1 h 59 min
Bit rate                       : 96.0 kb/s
Channel(s)                     : 2 channels
Channel layout                 : L R
Sampling rate                  : 48.0 kHz
Frame rate                     : 46.875 FPS (1024 SPF)
Compression mode               : Lossy
Delay relative to video        : -21 ms
Stream size                    : 81.6 MiB (9%)
Title                          : GOPI SAHI
Language                       : English
Default                        : No
Forced                         : No

Text
ID                             : 4
Format                         : UTF-8
Codec ID                       : S_TEXT/UTF8
Codec ID/Info                  : UTF-8 Plain Text
Duration                       : 1 h 52 min
Bit rate                       : 37 b/s
Count of elements              : 1124
Stream size                    : 31.1 KiB (0%)
Title                          : GOPI SAHI
Language                       : English
Default                        : Yes
Forced                         : No

 

MAGNET

TORRENT


GDRIVE FILE COPY

DWONLOAD AUTO START IN 20 SEC

ONLINE 720P


MULTIUP

MEDIAFIRE