Midway 2019 x264 720p Esub BluRay Dual Audio English Hindi GOPI SAHI

Midway (2019)

 
 
The story of the Battle of Midway, told by the leaders and the sailors who fought it.
EN

Director:

Roland Emmerich

Writer:

Wes Tooke
 
6.7/10
66,678
Directed byRoland Emmerich
Produced by
Written byWes Tooke
Starring
Music by
CinematographyRobby Baumgartner
Edited by
  • Adam Wolfe
Production
company
Distributed byLionsgate
Release date
  • November 8, 2019 (United States)
Running time
138 minutes
CountryUnited States
LanguageEnglish
Budget$100 million[1]
Box office$125.6 million[2]

 

 

Midway 2019 x264 720p Esub BluRay Dual Audio English Hindi GOPI SAHI


Format                         : Matroska
Format version                 : Version 4
File size                      : 1.07 GiB
Duration                       : 2 h 18 min
Overall bit rate               : 1 108 kb/s
Movie name                     : Midway 2019 GOPI SAHI
Encoded date                   : UTC 2021-02-07 06:34:25

Video
ID                             : 1
Format                         : AVC
Format/Info                    : Advanced Video Codec
Format profile                 : [email protected]
Format settings                : CABAC / 5 Ref Frames
Format settings, CABAC         : Yes
Format settings, Reference fra : 5 frames
Codec ID                       : V_MPEG4/ISO/AVC
Duration                       : 2 h 18 min
Bit rate                       : 899 kb/s
Width                          : 1 280 pixels
Height                         : 536 pixels
Display aspect ratio           : 2.40:1
Frame rate mode                : Constant
Frame rate                     : 23.976 (24000/1001) FPS
Color space                    : YUV
Chroma subsampling             : 4:2:0
Bit depth                      : 8 bits
Scan type                      : Progressive
Bits/(Pixel*Frame)             : 0.055
Stream size                    : 890 MiB (81%)
Title                          : GOPI SAHI
Writing library                : x264 core 157 r2935 545de2f

Audio #1
ID                             : 2
Format                         : AAC LC
Format/Info                    : Advanced Audio Codec Low Complexity
Codec ID                       : A_AAC-2
Duration                       : 2 h 18 min
Bit rate                       : 96.0 kb/s
Channel(s)                     : 2 channels
Channel layout                 : L R
Sampling rate                  : 48.0 kHz
Frame rate                     : 46.875 FPS (1024 SPF)
Compression mode               : Lossy
Delay relative to video        : 8 s 854 ms
Stream size                    : 95.3 MiB (9%)
Title                          : GOPI SAHI
Language                       : Hindi
Default                        : Yes
Forced                         : No

Audio #2
ID                             : 3
Format                         : AAC LC
Format/Info                    : Advanced Audio Codec Low Complexity
Codec ID                       : A_AAC-2
Duration                       : 2 h 18 min
Bit rate                       : 96.0 kb/s
Channel(s)                     : 2 channels
Channel layout                 : L R
Sampling rate                  : 48.0 kHz
Frame rate                     : 46.875 FPS (1024 SPF)
Compression mode               : Lossy
Delay relative to video        : -21 ms
Stream size                    : 95.5 MiB (9%)
Title                          : GOPI SAHI
Language                       : English
Default                        : No
Forced                         : No

Text
ID                             : 4
Format                         : PGS
Muxing mode                    : zlib
Codec ID                       : S_HDMV/PGS
Codec ID/Info                  : Picture based subtitle format used on BDs/HD-DVDs
Duration                       : 2 h 8 min
Bit rate                       : 30.2 kb/s
Count of elements              : 2470
Stream size                    : 27.7 MiB (3%)
Title                          : GOPI SAHI
Language                       : English
Default                        : No
Forced                         : No

Menu
00:00:00.000                   : :Chapter 1
00:09:36.659                   : :Chapter 2
00:17:37.682                   : :Chapter 3
00:25:13.721                   : :Chapter 4
00:30:33.623                   : :Chapter 5
00:39:34.372                   : :Chapter 6
00:46:13.020                   : :Chapter 7
00:53:48.851                   : :Chapter 8
01:00:33.255                   : :Chapter 9
01:09:01.971                   : :Chapter 10
01:16:11.067                   : :Chapter 11
01:24:48.041                   : :Chapter 12
01:31:49.546                   : :Chapter 13
01:42:08.873                   : :Chapter 14
01:51:17.880                   : :Chapter 15
02:02:21.084                   : :Chapter 16

 

MAGNET

TORRENT

GDRIVE FILE COPY

DWONLOAD AUTO START IN 20 SEC

ONLINE 720P

MULTIUP


MEDIAFIRE