Mary Queen of Scots 2018 x264 720p Esub BluRay Dual Audio English Hindi THE GOPI SAHI

Mary Queen of Scots (2018)

 
 
Mary Stuart's (Saoirse Ronan's) attempt to overthrow her cousin Elizabeth I (Margot Robbie), Queen of England, finds her condemned to years of imprisonment before facing execution.
EN

Director:

Josie Rourke

Writers:

Beau Willimon (screenplay by), John Guy (based on the book "Queen of Scots: The True Life of Mary Stuart" by) (as Dr. John Guy)
 
6.3/10
42,004

 

Directed byJosie Rourke
Produced by
Screenplay byBeau Willimon
Based onQueen of Scots: The True Life of Mary Stuart
by John Guy
Starring
Music byMax Richter
CinematographyJohn Mathieson
Edited byChris Dickens
Production
companies
Distributed by
Release date
  • 15 November 2018 (AFI)
  • 7 December 2018 (United States)
  • 18 January 2019 (United Kingdom)
Running time
125 minutes[1]
Countries
  • United Kingdom
  • United States
LanguageEnglish
Box office$46.7 million[2]

 

 


 Mary Queen of Scots 2018 x264 720p Esub BluRay Dual Audio English Hindi THE GOPI SAHI

Format                         : Matroska
Format version                 : Version 4
File size                      : 973 MiB
Duration                       : 2 h 3 min
Overall bit rate               : 1 098 kb/s
Movie name                     : Mary Queen of Scots 2018 GOPI SAHI
Encoded date                   : UTC 2021-01-26 12:32:21


Video
ID                             : 1
Format                         : AVC
Format/Info                    : Advanced Video Codec
Format profile                 : [email protected]
Format settings                : CABAC / 5 Ref Frames
Format settings, CABAC         : Yes
Format settings, Reference fra : 5 frames
Codec ID                       : V_MPEG4/ISO/AVC
Duration                       : 2 h 3 min
Bit rate                       : 899 kb/s
Width                          : 1 280 pixels
Height                         : 536 pixels
Display aspect ratio           : 2.40:1
Frame rate mode                : Constant
Frame rate                     : 23.976 (24000/1001) FPS
Color space                    : YUV
Chroma subsampling             : 4:2:0
Bit depth                      : 8 bits
Scan type                      : Progressive
Bits/(Pixel*Frame)             : 0.055
Stream size                    : 796 MiB (82%)
Title                          : GOPI SAHI
Writing library                : x264 core 157 r2935 545de2f

Audio #1
ID                             : 2
Format                         : AAC LC
Format/Info                    : Advanced Audio Codec Low Complexity
Codec ID                       : A_AAC-2
Duration                       : 2 h 3 min
Bit rate                       : 96.0 kb/s
Channel(s)                     : 2 channels
Channel layout                 : L R
Sampling rate                  : 48.0 kHz
Frame rate                     : 46.875 FPS (1024 SPF)
Compression mode               : Lossy
Delay relative to video        : 1 s 874 ms
Stream size                    : 85.1 MiB (9%)
Title                          : GOPI SAHI
Language                       : Hindi
Default                        : Yes
Forced                         : No

Audio #2
ID                             : 3
Format                         : AAC LC
Format/Info                    : Advanced Audio Codec Low Complexity
Codec ID                       : A_AAC-2
Duration                       : 2 h 3 min
Bit rate                       : 96.0 kb/s
Channel(s)                     : 2 channels
Channel layout                 : L R
Sampling rate                  : 48.0 kHz
Frame rate                     : 46.875 FPS (1024 SPF)
Compression mode               : Lossy
Delay relative to video        : -26 ms
Stream size                    : 85.3 MiB (9%)
Title                          : GOPI SAHI
Language                       : English
Default                        : No
Forced                         : No

Text
ID                             : 4
Format                         : VobSub
Muxing mode                    : zlib
Codec ID                       : S_VOBSUB
Codec ID/Info                  : Picture based subtitle format used on DVDs
Duration                       : 1 h 54 min
Bit rate                       : 8 396 b/s
Count of elements              : 1369
Stream size                    : 6.88 MiB (1%)
Title                          : GOPI SAHI
Language                       : English
Default                        : Yes
Forced                         : No




 MAGNET

TORRENT

TORRENT 2 ZIP FILE

GDRIVE FILE COPY

DWONLOAD AUTO START IN 20 SEC ZIP FILE

DOSYA

DOBOX LINK = PASSWORD = 92xt

MULTIUP


MEDIAFIRE

ONLINE 720P