Main Mulayam Singh Yadav 2021 x264 720p WebHD Hindi THE GOPI SAHI

 

Main Mulayam Singh Yadav (2021)

"ZINDA KAUMEIN PAANCH SAAL TAK INTEZAAR NAHIN KARTI" This quote by one of his guru Dr. Ram Manohar Lohia became his Mantra as he flourished and became one of the most successful Political ... See full synopsis »
EN

Director:

Suvendu Ghosh

Writer:

Rashid Iqbal
 
7.4/10
54

 

 


Main Mulayam Singh Yadav 2021 x264 720p WebHD Hindi THE GOPI SAHI

Format                         : Matroska
Format version                 : Version 4
File size                      : 1.02 GiB
Duration                       : 2 h 25 min
Overall bit rate               : 997 kb/s
Movie name                     : Main Mulayam Singh Yadav 2021 GOPI SAHI
Encoded date                   : UTC 2021-02-14 13:53:05.

Video
ID                             : 1
Format                         : AVC
Format/Info                    : Advanced Video Codec
Format profile                 : [email protected]
Format settings                : CABAC / 5 Ref Frames
Format settings, CABAC         : Yes
Format settings, Reference fra : 5 frames
Codec ID                       : V_MPEG4/ISO/AVC
Duration                       : 2 h 25 min
Bit rate                       : 899 kb/s
Width                          : 1 280 pixels
Height                         : 538 pixels
Display aspect ratio           : 2.40:1
Frame rate mode                : Constant
Frame rate                     : 29.970 (30000/1001) FPS
Color space                    : YUV
Chroma subsampling             : 4:2:0
Bit depth                      : 8 bits
Scan type                      : Progressive
Bits/(Pixel*Frame)             : 0.044
Stream size                    : 937 MiB (90%)
Title                          : GOPI SAHI
Writing library                : x264 core 157 r2935 545de2f

Audio
ID                             : 2
Format                         : AAC LC
Format/Info                    : Advanced Audio Codec Low Complexity
Codec ID                       : A_AAC-2
Duration                       : 2 h 25 min
Bit rate                       : 96.0 kb/s
Channel(s)                     : 2 channels
Channel layout                 : L R
Sampling rate                  : 48.0 kHz
Frame rate                     : 46.875 FPS (1024 SPF)
Compression mode               : Lossy
Delay relative to video        : -42 ms
Stream size                    : 100 MiB (10%)
Title                          : GOPI SAHI
Language                       : Hindi
Default                        : Yes
Forced                         : No




MAGNET

TORRENT

GDRIVE FILE COPY

DWONLOAD AUTO START IN 20 SEC

ONLINE 720P

MULTIUP

MEDIAFIRE