Lost Girls 2020 x264 720p WebHD Esub Dual Audio English Hindi THE GOPI SAHI

Lost Girls (2020)

 
 
When Mari Gilbert's daughter disappears, police inaction drives her own investigation into the gated Long Island community where Shannan was last seen. Her search brings attention to over a dozen murdered sex workers.
EN

Director:

Liz Garbus

Writers:

Robert Kolker (book), Michael Werwie
 
6.1/10
16,940


Lost Girls 2020 x264 720p WebHD Esub Dual Audio English Hindi THE GOPI SAHI

Format                         : Matroska
Format version                 : Version 4
File size                      : 746 MiB
Duration                       : 1 h 35 min
Overall bit rate               : 1 093 kb/s
Movie name                     : Lost Girls 2020 GOPISAHI
Encoded date                   : UTC 2021-02-21 10:40:22

Video
ID                             : 1
Format                         : AVC
Format/Info                    : Advanced Video Codec
Format profile                 : [email protected]
Format settings                : CABAC / 10 Ref Frames
Format settings, CABAC         : Yes
Format settings, Reference fra : 10 frames
Codec ID                       : V_MPEG4/ISO/AVC
Duration                       : 1 h 35 min
Bit rate                       : 899 kb/s
Width                          : 1 280 pixels
Height                         : 640 pixels
Display aspect ratio           : 2.000
Frame rate mode                : Constant
Frame rate                     : 23.976 (24000/1001) FPS
Color space                    : YUV
Chroma subsampling             : 4:2:0
Bit depth                      : 8 bits
Scan type                      : Progressive
Bits/(Pixel*Frame)             : 0.046
Stream size                    : 613 MiB (82%)
Title                          : GOPISAHI
Writing library                : x264 core 157 r2935 545de2f

Audio #1
ID                             : 2
Format                         : AAC LC
Format/Info                    : Advanced Audio Codec Low Complexity
Codec ID                       : A_AAC-2
Duration                       : 1 h 35 min
Bit rate                       : 96.0 kb/s
Channel(s)                     : 2 channels
Channel layout                 : L R
Sampling rate                  : 48.0 kHz
Frame rate                     : 46.875 FPS (1024 SPF)
Compression mode               : Lossy
Delay relative to video        : -21 ms
Stream size                    : 65.4 MiB (9%)
Title                          : GOPISAHI
Language                       : Hindi
Default                        : Yes
Forced                         : No

Audio #2
ID                             : 3
Format                         : AAC LC
Format/Info                    : Advanced Audio Codec Low Complexity
Codec ID                       : A_AAC-2
Duration                       : 1 h 35 min
Bit rate                       : 96.0 kb/s
Channel(s)                     : 2 channels
Channel layout                 : L R
Sampling rate                  : 48.0 kHz
Frame rate                     : 46.875 FPS (1024 SPF)
Compression mode               : Lossy
Delay relative to video        : -21 ms
Stream size                    : 65.4 MiB (9%)
Title                          : GOPISAHI
Language                       : English
Default                        : No
Forced                         : No

Text
Language                       : English




MAGNET

TORRENT


TORRENT 2 ZIP FILE

GDRIVE FILE COPY

DWONLOAD AUTO START IN 20 SEC ZIP FILE

DOSYA

DOBOX LINK = PASSWORD = 64ny

MULTIUP

MEDIAFIRE

CLOUDRU

ONLINE 720P