K K Hundred 2021 x264 720p WebHD Hindi THE GOPI SAHI

 

 

K K Hundred 2021 x264 720p WebHD Hindi THE GOPI SAHI

Format                         : Matroska
Format version                 : Version 4
File size                      : 821 MiB
Duration                       : 1 h 55 min
Overall bit rate               : 997 kb/s
Movie name                     : K K Hundred 2021 GOPI SAHI
Encoded date                   : UTC 2021-02-16 02:23:35

Video
ID                             : 1
Format                         : AVC
Format/Info                    : Advanced Video Codec
Format profile                 : [email protected]
Format settings                : CABAC / 5 Ref Frames
Format settings, CABAC         : Yes
Format settings, Reference fra : 5 frames
Codec ID                       : V_MPEG4/ISO/AVC
Duration                       : 1 h 55 min
Bit rate                       : 899 kb/s
Width                          : 1 280 pixels
Height                         : 538 pixels
Display aspect ratio           : 2.40:1
Frame rate mode                : Constant
Frame rate                     : 24.000 FPS
Color space                    : YUV
Chroma subsampling             : 4:2:0
Bit depth                      : 8 bits
Scan type                      : Progressive
Bits/(Pixel*Frame)             : 0.054
Stream size                    : 740 MiB (90%)
Title                          : GOPI SAHI
Writing library                : x264 core 157 r2935 545de2f

Audio
ID                             : 2
Format                         : AAC LC
Format/Info                    : Advanced Audio Codec Low Complexity
Codec ID                       : A_AAC-2
Duration                       : 1 h 55 min
Bit rate                       : 96.0 kb/s
Channel(s)                     : 2 channels
Channel layout                 : L R
Sampling rate                  : 48.0 kHz
Frame rate                     : 46.875 FPS (1024 SPF)
Compression mode               : Lossy
Delay relative to video        : -21 ms
Stream size                    : 79.2 MiB (10%)
Title                          : GOPI SAHI
Language                       : Hindi
Default                        : Yes
Forced                         : No




MAGNET

TORRENT


GDRIVE FILE COPY

DWONLOAD AUTO START IN 20 SEC

 DWONLOADS AUTO

PASS LINK =  nu4h =DUBOX 

DOSYA

ONLINE 720P

MULTIUP

MEDIAFIRE