Jagravan Joga 2020 x264 720p WebHD Punjabi THE GOPI SAHI

 

Jagga Jagravan Joga (2020)

 
 


Karaj and his wife. Her parents have passed away and he does farming on their land. However, her uncle is convinced that he should own the land instead and files a case against Karaj.
EN

Director:

Sherry Uppal
 
 
1.9/10
7
 
 

Jagravan Joga 2020 x264 720p WebHD Punjabi THE GOPI SAHI

Format                         : Matroska
Format version                 : Version 4
File size                      : 818 MiB
Duration                       : 1 h 54 min
Overall bit rate               : 997 kb/s
Movie name                     : Jagravan Joga 2020 GOPI SAHI
Encoded date                   : UTC 2020-08-09 03:56:15

Video
ID                             : 1
Format                         : AVC
Format/Info                    : Advanced Video Codec
Format profile                 : [email protected]
Format settings                : CABAC / 5 Ref Frames
Format settings, CABAC         : Yes
Format settings, Reference fra : 5 frames
Codec ID                       : V_MPEG4/ISO/AVC
Duration                       : 1 h 54 min
Bit rate                       : 899 kb/s
Width                          : 1 280 pixels
Height                         : 532 pixels
Display aspect ratio           : 2.40:1
Frame rate mode                : Constant
Frame rate                     : 24.000 FPS
Color space                    : YUV
Chroma subsampling             : 4:2:0
Bit depth                      : 8 bits
Scan type                      : Progressive
Bits/(Pixel*Frame)             : 0.055
Stream size                    : 738 MiB (90%)
Title                          : GOPI SAHI
Writing library                : x264 core 157 r2935 545de2f

Audio
ID                             : 2
Format                         : AAC LC
Format/Info                    : Advanced Audio Codec Low Complexity
Codec ID                       : A_AAC-2
Duration                       : 1 h 54 min
Bit rate                       : 96.0 kb/s
Channel(s)                     : 2 channels
Channel layout                 : L R
Sampling rate                  : 48.0 kHz
Frame rate                     : 46.875 FPS (1024 SPF)
Compression mode               : Lossy
Delay relative to video        : -42 ms
Stream size                    : 78.6 MiB (10%)
Title                          : GOPI SAHI
Language                       : Panjabi
Default                        : Yes
Forced                         : No




 MAGNET

TORRENT


TORRENT 2 ZIP FILE


GDRIVE FILE COPY

DWONLOAD AUTO START IN 20 SEC ZIP FILE

DOSYA

DOBOX LINK = PASSWORD = dxt4

MULTIUP

MEDIAFIRE

CLOUDRU

ONLINE 720P