Hello Mini 2021 S 2 Hindi 720p WEBRip x264 AAC ESub GOPI SAHI

 

Hello Mini 

 
 
A thriller drama series, revolving around Rivanah Bannerjee, an independent girl, living alone in Mumbai. She has the perfect life: doting parents, a loving boyfriend, and a great job. But ... See full summary »
EN
 
8.9/10
3,195

 

 
Format                         : Matroska
Format version                 : Version 4
File size                      : 169 MiB
Duration                       : 22 min 16 s
Overall bit rate               : 1 059 kb/s
Encoded date                   : UTC 2021-02-25 17:42:26
Writing application            : mkvmerge v41.0.0 ('Smarra') 64-bit
Writing library                : libebml v1.3.9 + libmatroska v1.5.2

Video
ID                             : 1
Format                         : AVC
Format/Info                    : Advanced Video Codec
Format profile                 : [email protected]
Format settings                : CABAC / 4 Ref Frames
Format settings, CABAC         : Yes
Format settings, Reference fra : 4 frames
Codec ID                       : V_MPEG4/ISO/AVC
Duration                       : 22 min 16 s
Bit rate                       : 940 kb/s
Width                          : 1 280 pixels
Height                         : 720 pixels
Display aspect ratio           : 16:9
Frame rate mode                : Constant
Frame rate                     : 25.000 FPS
Color space                    : YUV
Chroma subsampling             : 4:2:0
Bit depth                      : 8 bits
Scan type                      : Progressive
Bits/(Pixel*Frame)             : 0.041
Stream size                    : 148 MiB (88%)
Writing library                : x264 core 155 r2901 7d0ff22


Audio
ID                             : 2
Format                         : AAC LC
Format/Info                    : Advanced Audio Codec Low Complexity
Codec ID                       : A_AAC-2
Duration                       : 22 min 15 s
Bit rate                       : 128 kb/s
Channel(s)                     : 2 channels
Channel layout                 : L R
Sampling rate                  : 48.0 kHz
Frame rate                     : 46.875 FPS (1024 SPF)
Compression mode               : Lossy
Stream size                    : 20.4 MiB (12%)
Language                       : Hindi
Default                        : Yes
Forced                         : No

Text
ID                             : 3
Format                         : UTF-8
Codec ID                       : S_TEXT/UTF8
Codec ID/Info                  : UTF-8 Plain Text
Duration                       : 19 min 58 s
Bit rate                       : 44 b/s
Count of elements              : 213
Stream size                    : 6.46 KiB (0%)
Language                       : English
Default                        : Yes
Forced                         : No






MAGNET

TORRENT 2 ZIP FILE

ZIP FILE LINKS 2 GB


GDRIVE FILE COPY

DWONLOAD AUTO START IN 20 SEC ZIP FILE


DOBOX LINK = PASSWORD = duef

MULTIUP

 

  SINGLE LINKS EP BY EP 

 

MEDIAFIRE LINKS EP BY EP