Happy Death Day 2U 2019 x264 720p Esub BluRay Dual Audio English Hindi GOPI SAHI

 

Happy Death Day 2U (2019)

 
 
Tree Gelbman discovers that dying over and over was surprisingly easier than the dangers that lie ahead.
EN

Director:

Christopher Landon

Writers:

Christopher Landon, Scott Lobdell (based on characters created by)
 
 
6.2/10

58,336

 

 

Directed byChristopher Landon
Produced byJason Blum
Written byChristopher Landon
Based onCharacters
by Scott Lobdell
Starring
Music byBear McCreary
CinematographyToby Oliver
Edited byBen Baudhuin
Production
company
Distributed byUniversal Pictures
Release date
  • February 13, 2019 (United States)
Running time
100 minutes[1]
CountryUnited States
LanguageEnglish
Budget$9 million[1]
Box office$64.6 million[1]

Format                         : Matroska
Format version                 : Version 4
File size                      : 798 MiB
Duration                       : 1 h 40 min
Overall bit rate               : 1 116 kb/s
Movie name                     : Happy Death Day 2U 2019 GOPI SAHI
Encoded date                   : UTC 2021-02-01 13:17:45

Video
ID                             : 1
Format                         : AVC
Format/Info                    : Advanced Video Codec
Format profile                 : [email protected]
Format settings                : CABAC / 5 Ref Frames
Format settings, CABAC         : Yes
Format settings, Reference fra : 5 frames
Codec ID                       : V_MPEG4/ISO/AVC
Duration                       : 1 h 39 min
Bit rate                       : 899 kb/s
Width                          : 1 280 pixels
Height                         : 534 pixels
Display aspect ratio           : 2.40:1
Frame rate mode                : Constant
Frame rate                     : 23.976 (24000/1001) FPS
Color space                    : YUV
Chroma subsampling             : 4:2:0
Bit depth                      : 8 bits
Scan type                      : Progressive
Bits/(Pixel*Frame)             : 0.055
Stream size                    : 642 MiB (80%)
Title                          : GOPI SAHI
Writing library                : x264 core 157 r2935 545de2f

Audio #1
ID                             : 2
Format                         : AAC LC
Format/Info                    : Advanced Audio Codec Low Complexity
Codec ID                       : A_AAC-2
Duration                       : 1 h 40 min
Bit rate                       : 96.0 kb/s
Channel(s)                     : 2 channels
Channel layout                 : L R
Sampling rate                  : 48.0 kHz
Frame rate                     : 46.875 FPS (1024 SPF)
Compression mode               : Lossy
Delay relative to video        : 67 ms
Stream size                    : 68.9 MiB (9%)
Title                          : GOPI SAHI
Language                       : Hindi
Default                        : Yes
Forced                         : No

Audio #2
ID                             : 3
Format                         : AAC LC
Format/Info                    : Advanced Audio Codec Low Complexity
Codec ID                       : A_AAC-2
Duration                       : 1 h 39 min
Bit rate                       : 96.0 kb/s
Channel(s)                     : 2 channels
Channel layout                 : L R
Sampling rate                  : 48.0 kHz
Frame rate                     : 46.875 FPS (1024 SPF)
Compression mode               : Lossy
Delay relative to video        : -21 ms
Stream size                    : 68.9 MiB (9%)
Title                          : GOPI SAHI
Language                       : English
Default                        : No
Forced                         : No

Text #1
ID                             : 4
Format                         : PGS
Muxing mode                    : zlib
Codec ID                       : S_HDMV/PGS
Codec ID/Info                  : Picture based subtitle format used on BDs/HD-DVDs
Duration                       : 1 h 34 min
Bit rate                       : 26.5 kb/s
Count of elements              : 2584
Stream size                    : 17.9 MiB (2%)
Title                          : GOPI SAHI
Language                       : Hindi
Default                        : No
Forced                         : No

Text #2
ID                             : 5
Format                         : PGS
Muxing mode                    : zlib
Codec ID                       : S_HDMV/PGS
Codec ID/Info                  : Picture based subtitle format used on BDs/HD-DVDs
Duration                       : 1 h 34 min
Bit rate                       : 46.5 kb/s
Count of elements              : 3190
Stream size                    : 31.3 MiB (4%)
Title                          : GOPI SAHI
Language                       : English
Default                        : No
Forced                         : No

Menu
00:00:00.000                   : :Chapter 1
00:07:42.253                   : :Chapter 2
00:16:01.085                   : :Chapter 3
00:21:16.066                   : :Chapter 4
00:24:21.627                   : :Chapter 5
00:28:45.057                   : :Chapter 6
00:32:34.661                   : :Chapter 7
00:37:15.817                   : :Chapter 8
00:42:02.979                   : :Chapter 9
00:45:35.107                   : :Chapter 10
00:48:37.665                   : :Chapter 11
00:54:27.347                   : :Chapter 12
01:00:36.341                   : :Chapter 13
01:06:24.314                   : :Chapter 14
01:13:19.520                   : :Chapter 15
01:17:47.246                   : :Chapter 16
01:21:31.762                   : :Chapter 17
01:27:36.084                   : :Chapter 18
01:33:03.119                   : :Chapter 19
01:35:05.742                   : :Chapter 20

 

MAGNET

TORRENT


GDRIVE FILE COPY


DWONLOAD AUTO START IN 20 SEC

ONLINE 720P

MULTIUP


MEDIAFIRE