Guns Akimbo 2019 x264 720p Esub BluRay Dual Audio English Hindi GOPI SAHI

Guns Akimbo (2019)

 
 
A guy relies on his newly-acquired gladiator skills to save his ex-girlfriend from kidnappers.
EN

Director:

Jason Lei Howden

6.3/10 
 

 

Directed byJason Lei Howden
Produced by
Written byJason Lei Howden
Starring
Music byEnis Rotthoff
CinematographyStefan Ciupek
Edited by
  • Luke Haigh
  • Zaz Montana
Production
companies
Distributed by
Release date
  • 9 September 2019 (TIFF)
  • 5 March 2020 (New Zealand)
  • 2 April 2020 (United States)
Running time
95 minutes
Country
  • New Zealand
  • United Kingdom
  • Germany
LanguageEnglish
Box office$835,102[2]

 

Guns Akimbo 2019 x264 720p Esub BluRay Dual Audio English Hindi GOPI SAHI


Format                         : Matroska
Format version                 : Version 4
File size                      : 765 MiB
Duration                       : 1 h 37 min
Overall bit rate               : 1 094 kb/s
Movie name                     : Guns Akimbo 2019 GOPI SAHI
Encoded date                   : UTC 2021-02-08 04:13:42

Video
ID                             : 1
Format                         : AVC
Format/Info                    : Advanced Video Codec
Format profile                 : [email protected]
Format settings                : CABAC / 5 Ref Frames
Format settings, CABAC         : Yes
Format settings, Reference fra : 5 frames
Codec ID                       : V_MPEG4/ISO/AVC
Duration                       : 1 h 37 min
Bit rate                       : 899 kb/s
Width                          : 1 280 pixels
Height                         : 536 pixels
Display aspect ratio           : 2.40:1
Frame rate mode                : Constant
Frame rate                     : 23.976 (24000/1001) FPS
Color space                    : YUV
Chroma subsampling             : 4:2:0
Bit depth                      : 8 bits
Scan type                      : Progressive
Bits/(Pixel*Frame)             : 0.055
Stream size                    : 628 MiB (82%)
Title                          : GOPI SAHI
Writing library                : x264 core 157 r2935 545de2f

Audio #1
ID                             : 2
Format                         : AAC LC
Format/Info                    : Advanced Audio Codec Low Complexity
Codec ID                       : A_AAC-2
Duration                       : 1 h 37 min
Bit rate                       : 96.0 kb/s
Channel(s)                     : 2 channels
Channel layout                 : L R
Sampling rate                  : 48.0 kHz
Frame rate                     : 46.875 FPS (1024 SPF)
Compression mode               : Lossy
Delay relative to video        : 16 s 715 ms
Stream size                    : 67.3 MiB (9%)
Title                          : GOPI SAHI
Language                       : Hindi
Default                        : Yes
Forced                         : No

Audio #2
ID                             : 3
Format                         : AAC LC
Format/Info                    : Advanced Audio Codec Low Complexity
Codec ID                       : A_AAC-2
Duration                       : 1 h 37 min
Bit rate                       : 96.0 kb/s
Channel(s)                     : 2 channels
Channel layout                 : L R
Sampling rate                  : 48.0 kHz
Frame rate                     : 46.875 FPS (1024 SPF)
Compression mode               : Lossy
Delay relative to video        : -21 ms
Stream size                    : 67.2 MiB (9%)
Title                          : GOPI SAHI
Language                       : English
Default                        : No
Forced                         : No

Text
ID                             : 4
Format                         : UTF-8
Codec ID                       : S_TEXT/UTF8
Codec ID/Info                  : UTF-8 Plain Text
Duration                       : 1 h 29 min
Bit rate                       : 58 b/s
Count of elements              : 1248
Stream size                    : 38.5 KiB (0%)
Title                          : GOPI SAHI
Language                       : English
Default                        : Yes
Forced                         : No

 

MAGNET

TORRENT

GDRIVE FILE COPY

DWONLOAD AUTO START IN 20 SEC

ONLINE 720P


MULTIUP

MULT

MEDIAFIRE