Greta 2018 x264 720p Esub BluRay Dual Audio English Hindi GOPI SAHI

Greta (2018)

 

A young woman befriends a lonely widow who's harboring a dark and deadly agenda toward her.
EN

Director:

Neil Jordan

Writers:

Ray Wright (story by), Ray Wright (screenplay by) | 1 more credit »
 
6.0/10
25,646

 

 

Greta 2018 x264 720p Esub BluRay Dual Audio English Hindi GOPI SAHI


Format                         : Matroska
Format version                 : Version 4
File size                      : 772 MiB
Duration                       : 1 h 38 min
Overall bit rate               : 1 094 kb/s
Movie name                     : Greta 2018 GOPI SAHI
Encoded date                   : UTC 2021-02-15 10:00:32

Video
ID                             : 1
Format                         : AVC
Format/Info                    : Advanced Video Codec
Format profile                 : [email protected]
Format settings                : CABAC / 5 Ref Frames
Format settings, CABAC         : Yes
Format settings, Reference fra : 5 frames
Codec ID                       : V_MPEG4/ISO/AVC
Duration                       : 1 h 38 min
Bit rate                       : 899 kb/s
Width                          : 1 280 pixels
Height                         : 536 pixels
Display aspect ratio           : 2.40:1
Frame rate mode                : Constant
Frame rate                     : 23.976 (24000/1001) FPS
Color space                    : YUV
Chroma subsampling             : 4:2:0
Bit depth                      : 8 bits
Scan type                      : Progressive
Bits/(Pixel*Frame)             : 0.055
Stream size                    : 634 MiB (82%)
Title                          : GOPI SAHI
Writing library                : x264 core 157 r2935 545de2f

Audio #1
ID                             : 2
Format                         : AAC LC
Format/Info                    : Advanced Audio Codec Low Complexity
Codec ID                       : A_AAC-2
Duration                       : 1 h 38 min
Bit rate                       : 96.0 kb/s
Channel(s)                     : 2 channels
Channel layout                 : L R
Sampling rate                  : 48.0 kHz
Frame rate                     : 46.875 FPS (1024 SPF)
Compression mode               : Lossy
Delay relative to video        : 2 s 162 ms
Stream size                    : 67.8 MiB (9%)
Title                          : GOPI SAHI
Language                       : Hindi
Default                        : Yes
Forced                         : No

Audio #2
ID                             : 3
Format                         : AAC LC
Format/Info                    : Advanced Audio Codec Low Complexity
Codec ID                       : A_AAC-2
Duration                       : 1 h 38 min
Bit rate                       : 96.0 kb/s
Channel(s)                     : 2 channels
Channel layout                 : L R
Sampling rate                  : 48.0 kHz
Frame rate                     : 46.875 FPS (1024 SPF)
Compression mode               : Lossy
Delay relative to video        : -26 ms
Stream size                    : 67.8 MiB (9%)
Title                          : GOPI SAHI
Language                       : English
Default                        : No
Forced                         : No

Text
ID                             : 4
Format                         : UTF-8
Codec ID                       : S_TEXT/UTF8
Codec ID/Info                  : UTF-8 Plain Text
Duration                       : 1 h 32 min
Bit rate                       : 44 b/s
Count of elements              : 1079
Stream size                    : 29.9 KiB (0%)
Title                          : GOPI SAHI
Language                       : English
Default                        : Yes
Forced                         : No

Menu
00:00:00.005                   : :Глава 01
00:05:16.988                   : :Глава 02
00:10:20.625                   : :Глава 03
00:13:57.508                   : :Глава 04
00:18:47.798                   : :Глава 05
00:23:08.058                   : :Глава 06
00:28:08.358                   : :Глава 07
00:31:35.232                   : :Глава 08
00:36:12.175                   : :Глава 09
00:43:05.922                   : :Глава 10
00:46:04.433                   : :Глава 11
00:50:24.693                   : :Глава 12
00:55:50.018                   : :Глава 13
01:02:15.403                   : :Глава 14
01:07:27.382                   : :Глава 15
01:12:39.360                   : :Глава 16
01:16:42.937                   : :Глава 17
01:23:08.322                   : :Глава 18
01:27:28.582                   : :Глава 19
01:34:03.977                   : :Глава 20

 

MAGNET

TORRENT

GDRIVE FILE COPY

DWONLOAD AUTO START IN 20 SEC

ONLINE 720P

MULTIUP

MEDIAFIRE