Chappie 2015 x264 720p Esub BluRay Dual Audio English Hindi THE GOPI SAHI

Chappie (2015)

 
 
In the near future, crime is patrolled by a mechanized police force. When one police droid, Chappie, is stolen and given new programming, he becomes the first robot with the ability to think and feel for himself.
EN

Director:

Neill Blomkamp
 
6.8/10
230,23
Directed byNeill Blomkamp
Produced by
Written by
Starring
Music byHans Zimmer[a]
CinematographyTrent Opaloch
Edited by
Production
companies
Distributed bySony Pictures Releasing
Release date
Running time
120 minutes[1]
CountryUnited States[2][3]
Languages
  • English
  • Afrikaans
Budget$49 million[4]
Box office$102.1 million[4]

 


Chappie 2015 x264 720p Esub BluRay Dual Audio English Hindi THE GOPI SAHI

Format                         : Matroska
Format version                 : Version 4
File size                      : 973 MiB
Duration                       : 2 h 0 min
Overall bit rate               : 1 131 kb/s
Movie name                     : Chappie 2015 GOPI SAHI
Encoded date                   : UTC 2021-02-22 07:55:57

Video
ID                             : 1
Format                         : AVC
Format/Info                    : Advanced Video Codec
Format profile                 : [email protected]
Format settings                : CABAC / 5 Ref Frames
Format settings, CABAC         : Yes
Format settings, Reference fra : 5 frames
Codec ID                       : V_MPEG4/ISO/AVC
Duration                       : 2 h 0 min
Bit rate                       : 899 kb/s
Width                          : 1 280 pixels
Height                         : 534 pixels
Display aspect ratio           : 2.40:1
Frame rate mode                : Constant
Frame rate                     : 23.976 (24000/1001) FPS
Color space                    : YUV
Chroma subsampling             : 4:2:0
Bit depth                      : 8 bits
Scan type                      : Progressive
Bits/(Pixel*Frame)             : 0.055
Stream size                    : 773 MiB (79%)
Title                          : GOPI SAHI
Writing library                : x264 core 157 r2935 545de2f

Audio #1
ID                             : 2
Format                         : AAC LC
Format/Info                    : Advanced Audio Codec Low Complexity
Codec ID                       : A_AAC-2
Duration                       : 2 h 0 min
Bit rate                       : 96.0 kb/s
Channel(s)                     : 2 channels
Channel layout                 : L R
Sampling rate                  : 48.0 kHz
Frame rate                     : 46.875 FPS (1024 SPF)
Compression mode               : Lossy
Delay relative to video        : -21 ms
Stream size                    : 83.0 MiB (9%)
Title                          : GOPI SAHI
Language                       : Hindi
Default                        : Yes
Forced                         : No

Audio #2
ID                             : 3
Format                         : AAC LC
Format/Info                    : Advanced Audio Codec Low Complexity
Codec ID                       : A_AAC-2
Duration                       : 2 h 0 min
Bit rate                       : 96.0 kb/s
Channel(s)                     : 2 channels
Channel layout                 : L R
Sampling rate                  : 48.0 kHz
Frame rate                     : 46.875 FPS (1024 SPF)
Compression mode               : Lossy
Delay relative to video        : -21 ms
Stream size                    : 83.1 MiB (9%)
Title                          : GOPI SAHI
Language                       : English
Default                        : No
Forced                         : No

Text #1
ID                             : 4
Format                         : PGS
Muxing mode                    : zlib
Codec ID                       : S_HDMV/PGS
Codec ID/Info                  : Picture based subtitle format used on BDs/HD-DVDs
Duration                       : 1 h 52 min
Bit rate                       : 29.8 kb/s
Count of elements              : 3418
Stream size                    : 23.9 MiB (2%)
Title                          : GOPI SAHI
Language                       : Hindi
Default                        : Yes
Forced                         : No

Text #2
ID                             : 5
Format                         : PGS
Muxing mode                    : zlib
Codec ID                       : S_HDMV/PGS
Codec ID/Info                  : Picture based subtitle format used on BDs/HD-DVDs
Duration                       : 1 h 52 min
Bit rate                       : 56.9 kb/s
Count of elements              : 3214
Stream size                    : 45.7 MiB (5%)
Title                          : GOPI SAHI
Language                       : English

 


 

 MAGNET

TORRENT

TORRENT 2 ZIP FILE

GDRIVE FILE COPY


DWONLOAD AUTO START IN 20 SEC ZIP FILE

DOSYA

DOBOX LINK = PASSWORD = qbdj

MULTIUP

MEDIAFIRE

CLOUDRU


ONLINE 720P