Alita Battle Angel 2019 x264 720p Esub BluRay Dual Audio English Hindi THE GOPI SAHI

Alita: Battle Angel (2019)

 
 
A deactivated cyborg's revived, but can't remember anything of her past and goes on a quest to find out who she is.
EN

Director:

Robert Rodriguez

Writers:

James Cameron (screenplay by), Laeta Kalogridis (screenplay by) | 1 more credit »
 
7.3/10
230,059
Directed byRobert Rodriguez
Produced by
Screenplay by
Based onBattle Angel Alita
by Yukito Kishiro
Starring
Music byTom Holkenborg
CinematographyBill Pope
Edited by
Production
companies
Distributed by20th Century Fox
Release date
Running time
122 minutes[3]
CountryUnited States
LanguageEnglish
Budget$150–200 million[2]
Box office$405 million[4]



Alita Battle Angel 2019 x264 720p BluRay Dual Audio English Hindi THE GOPI SAHI

Format                         : Matroska
Format version                 : Version 4
File size                      : 1.10 GiB
Duration                       : 2 h 1 min
Overall bit rate               : 1 290 kb/s
Movie name                     : Alita Battle Angel 2019 GOPI SAHI               
Encoded date                   : UTC 2021-02-26 09:50:07
Writing application            : mkvmerge v52.0.0 ('Secret For The Mad') 64-bit
Writing library                : libebml v1.4.1 + libmatroska v1.6.2
Cover                          : Yes
Attachments                    : cover.jpg

Video
ID                             : 1
Format                         : AVC
Format/Info                    : Advanced Video Codec
Format profile                 : [email protected]
Format settings                : CABAC / 5 Ref Frames
Format settings, CABAC         : Yes
Format settings, Reference fra : 5 frames
Codec ID                       : V_MPEG4/ISO/AVC
Duration                       : 2 h 1 min
Bit rate                       : 899 kb/s
Width                          : 1 280 pixels
Height                         : 720 pixels
Display aspect ratio           : 16:9
Frame rate mode                : Constant
Frame rate                     : 23.976 (24000/1001) FPS
Color space                    : YUV
Chroma subsampling             : 4:2:0
Bit depth                      : 8 bits
Scan type                      : Progressive
Bits/(Pixel*Frame)             : 0.041
Stream size                    : 784 MiB (70%)
Title                          : GOPI SAHI
Writing library                : x264 core 157 r2935 545de2f

Audio #1
ID                             : 2
Format                         : AAC LC
Format/Info                    : Advanced Audio Codec Low Complexity
Codec ID                       : A_AAC-2
Duration                       : 2 h 1 min
Bit rate                       : 96.0 kb/s
Channel(s)                     : 2 channels
Channel layout                 : L R
Sampling rate                  : 48.0 kHz
Frame rate                     : 46.875 FPS (1024 SPF)
Compression mode               : Lossy
Delay relative to video        : -21 ms
Stream size                    : 84.2 MiB (7%)
Title                          : GOPI SAHI
Language                       : Hindi
Default                        : Yes
Forced                         : No

Audio #2
ID                             : 3
Format                         : AAC LC
Format/Info                    : Advanced Audio Codec Low Complexity
Codec ID                       : A_AAC-2
Duration                       : 2 h 1 min
Bit rate                       : 96.0 kb/s
Channel(s)                     : 2 channels
Channel layout                 : L R
Sampling rate                  : 48.0 kHz
Frame rate                     : 46.875 FPS (1024 SPF)
Compression mode               : Lossy
Delay relative to video        : -21 ms
Stream size                    : 84.1 MiB (7%)
Title                          : GOPI SAHI
Language                       : English
Default                        : No
Forced                         : No

Audio #3
ID                             : 4
Format                         : AAC LC
Format/Info                    : Advanced Audio Codec Low Complexity
Codec ID                       : A_AAC-2
Duration                       : 2 h 1 min
Bit rate                       : 96.0 kb/s
Channel(s)                     : 2 channels
Channel layout                 : L R
Sampling rate                  : 48.0 kHz
Frame rate                     : 46.875 FPS (1024 SPF)
Compression mode               : Lossy
Delay relative to video        : -21 ms
Stream size                    : 84.1 MiB (7%)
Title                          : GOPI SAHI
Language                       : Tamil
Default                        : No
Forced                         : No

Audio #4
ID                             : 5
Format                         : AAC LC
Format/Info                    : Advanced Audio Codec Low Complexity
Codec ID                       : A_AAC-2
Duration                       : 2 h 1 min
Bit rate                       : 96.0 kb/s
Channel(s)                     : 2 channels
Channel layout                 : L R
Sampling rate                  : 48.0 kHz
Frame rate                     : 46.875 FPS (1024 SPF)
Compression mode               : Lossy
Delay relative to video        : -21 ms
Stream size                    : 84.1 MiB (7%)
Title                          : GOPI SAHI
Language                       : Telugu
Default                        : No
Forced                         : No

Menu
00:00:00.000                   : en:00:00:00.000
00:21:49.683                   : en:00:21:49.683
00:31:41.358                   : en:00:31:41.358
00:37:21.448                   : en:00:37:21.448
00:39:20.984                   : en:00:39:20.984
00:43:26.562                   : en:00:43:26.562
00:46:23.698                   : en:00:46:23.698
00:52:24.516                   : en:00:52:24.516
00:54:05.117                   : en:00:54:05.117
01:02:19.444                   : en:01:02:19.444
01:07:27.835                   : en:01:07:27.835
01:10:23.136                   : en:01:10:23.136
01:14:14.784                   : en:01:14:14.784
01:15:51.088                   : en:01:15:51.088
01:28:37.896                   : en:01:28:37.896
01:30:27.380                   : en:01:30:27.380
01:36:28.783                   : en:01:36:28.783
01:43:36.585                   : en:01:43:36.585
01:48:50.733                   : en:01:48:50.733
01:50:52.563                   : en:01:50:52.563
01:53:21.336                   : en:01:53:21.336
02:02:19.999                   : en:02:02:19.999
02:06:21.991                   : en:02:06:21.991
02:08:06.846                   : en:02:08:06.846
02:09:26.217                   : en:02:09:26.217
02:11:29.757                   : en:02:11:29.757
02:14:15.631                   : en:02:14:15.631
02:20:14.364                   : en:02:20:14.364




 MAGNET

TORRENT

TORRENT 2 ZIP FILE

GDRIVE FILE COPY

DWONLOAD AUTO START IN 20 SEC ZIP FILE

DOBOX LINK = PASSWORD = mqhweiwp

MULTIUP

MEDIAFIRE

ONLINE 720P