Ad Astra 2019 BluRay x264 720p Esub Dual Audio English Hindi THE GOPI SAHI

Ad Astra (2019)

 
 
Astronaut Roy McBride undertakes a mission across an unforgiving solar system to uncover the truth about his missing father and his doomed expedition that now, 30 years later, threatens the universe.
EN

Director:

James Gray
 
6.5/10
199,567

 

irected byJames Gray
Produced by
Written by
Starring
Music byMax Richter
CinematographyHoyte van Hoytema
Edited by
  • John Axelrad
  • Lee Haugen
Production
companies
Distributed by20th Century Fox (through Walt Disney Studios Motion Pictures[a][1])
Release date
  • August 29, 2019 (Venice)
  • September 20, 2019 (United States)
Running time
124 minutes[2]
CountryUnited States
LanguageEnglish
Budget$80–100 million[3]
Box office$135.4 million[4]

 


Ad Astra 2019 BluRay x264 720p Esub Dual Audio English Hindi THE GOPI SAHI

Format                         : Matroska
Format version                 : Version 4
File size                      : 963 MiB
Duration                       : 2 h 3 min
Overall bit rate               : 1 094 kb/s
Movie name                     : Ad Astra 2019 GOPI SAHI
Encoded date                   : UTC 2021-02-08 10:42:27

Video
ID                             : 1
Format                         : AVC
Format/Info                    : Advanced Video Codec
Format profile                 : [email protected]
Format settings                : CABAC / 5 Ref Frames
Format settings, CABAC         : Yes
Format settings, Reference fra : 5 frames
Codec ID                       : V_MPEG4/ISO/AVC
Duration                       : 2 h 3 min
Bit rate                       : 899 kb/s
Width                          : 1 280 pixels
Height                         : 536 pixels
Display aspect ratio           : 2.40:1
Frame rate mode                : Constant
Frame rate                     : 23.976 (24000/1001) FPS
Color space                    : YUV
Chroma subsampling             : 4:2:0
Bit depth                      : 8 bits
Scan type                      : Progressive
Bits/(Pixel*Frame)             : 0.055
Stream size                    : 791 MiB (82%)
Title                          : GOPI SAHI
Writing library                : x264 core 157 r2935 545de2f

Audio #1
ID                             : 2
Format                         : AAC LC
Format/Info                    : Advanced Audio Codec Low Complexity
Codec ID                       : A_AAC-2
Duration                       : 2 h 3 min
Bit rate                       : 96.0 kb/s
Channel(s)                     : 2 channels
Channel layout                 : L R
Sampling rate                  : 48.0 kHz
Frame rate                     : 46.875 FPS (1024 SPF)
Compression mode               : Lossy
Delay relative to video        : -21 ms
Stream size                    : 84.7 MiB (9%)
Title                          : GOPI SAHI
Language                       : Hindi
Default                        : Yes
Forced                         : No

Audio #2
ID                             : 3
Format                         : AAC LC
Format/Info                    : Advanced Audio Codec Low Complexity
Codec ID                       : A_AAC-2
Duration                       : 2 h 3 min
Bit rate                       : 96.0 kb/s
Channel(s)                     : 2 channels
Channel layout                 : L R
Sampling rate                  : 48.0 kHz
Frame rate                     : 46.875 FPS (1024 SPF)
Compression mode               : Lossy
Delay relative to video        : -21 ms
Stream size                    : 84.7 MiB (9%)
Title                          : GOPI SAHI
Language                       : English
Default                        : No
Forced                         : No

Text
ID                             : 4
Format                         : UTF-8
Codec ID                       : S_TEXT/UTF8
Codec ID/Info                  : UTF-8 Plain Text
Duration                       : 2 h 0 min
Bit rate                       : 46 b/s
Count of elements              : 1397
Stream size                    : 41.3 KiB (0%)
Title                          : GOPI SAHI
Language                       : English
Default                        : Yes
Forced                         : No

 




MAGNET

TORRENT


GDRIVE FILE COPY


DWONLOAD AUTO START IN 20 SEC

ONLINE 720P

 

MULTIUP

MEDIAFIRE