Nail Polish 2021 x264 720p Esub ZEE5 Hindi GOPI SAHI

 

Nail Polish (2021)

 
 
Nail Polish, written and directed by Bugs Bhargava Krishna, stars Arjun Rampal, Manav Kaul, Anand Tiwari and Rajit Kapur. It's a legal thriller that explores the uncertainty of the human mind.
EN
 
7.3/10
465

 

Nail Polish 2021 x264 720p Esub ZEE5 Hindi GOPI SAHI


Format                         : Matroska
Format version                 : Version 4
File size                      : 914 MiB
Duration                       : 2 h 8 min
Overall bit rate               : 998 kb/s
Movie name                     : Nail Polish 2021 GOPI SAHI
Encoded date                   : UTC 2021-01-03 06:15:54

Video
ID                             : 1
Format                         : AVC
Format/Info                    : Advanced Video Codec
Format profile                 : [email protected]
Format settings                : CABAC / 5 Ref Frames
Format settings, CABAC         : Yes
Format settings, Reference fra : 5 frames
Codec ID                       : V_MPEG4/ISO/AVC
Duration                       : 2 h 8 min
Bit rate                       : 899 kb/s
Width                          : 1 280 pixels
Height                         : 720 pixels
Display aspect ratio           : 16:9
Frame rate mode                : Constant
Frame rate                     : 24.000 FPS
Color space                    : YUV
Chroma subsampling             : 4:2:0
Bit depth                      : 8 bits
Scan type                      : Progressive
Bits/(Pixel*Frame)             : 0.041
Stream size                    : 823 MiB (90%)
Title                          : GOPI SAHI
Writing library                : x264 core 157 r2935 545de2f

Audio
ID                             : 2
Format                         : AAC LC
Format/Info                    : Advanced Audio Codec Low Complexity
Codec ID                       : A_AAC-2
Duration                       : 2 h 8 min
Bit rate                       : 96.0 kb/s
Channel(s)                     : 2 channels
Channel layout                 : L R
Sampling rate                  : 48.0 kHz
Frame rate                     : 46.875 FPS (1024 SPF)
Compression mode               : Lossy
Delay relative to video        : -54 ms
Stream size                    : 88.2 MiB (10%)
Language                       : Hindi
Default                        : Yes
Forced                         : No

Text
ID                             : 3
Format                         : UTF-8
Codec ID                       : S_TEXT/UTF8
Codec ID/Info                  : UTF-8 Plain Text
Duration                       : 2 h 4 min
Bit rate                       : 57 b/s
Count of elements              : 1633
Stream size                    : 52.2 KiB (0%)
Title                          : GOPI SAHI
Language                       : English
Default                        : Yes
Forced                         : No


 

MAGNET

TORRENT

GDRIVE FILE COPY

DWONLOAD AUTO START IN 20 SEC

ONLINE 720P

MULTIUP

MEDIAFIRE ( DISABLE )