Manje Bistre 2 2019 x264 720p Esub Disney+Hotstar Punjabi GOPI SAHI

Manje Bistre 2 (2019)

Not Rated | | Drama | 12 April 2019 (India)
 
 
The movie follows Sukhi as he goes from India to Canada to attend his cousin, Ganda's wedding - a typical big fat traditional Punjabi wedding.
EN

Director:

Baljit Singh Deo
 
5.6/10
127

 

 Manje Bistre 2 2019 x264 720p Esub AmaZoNe Punjabi GOPI SAHI

Format                         : Matroska
Format version                 : Version 4
File size                      : 891 MiB
Duration                       : 2 h 4 min
Overall bit rate               : 997 kb/s
Movie name                     : Manje Bistre 2 2019 GOPI SAHI
Encoded date                   : UTC 2021-01-01 14:26:08

Video
ID                             : 1
Format                         : AVC
Format/Info                    : Advanced Video Codec
Format profile                 : [email protected]
Format settings                : CABAC / 5 Ref Frames
Format settings, CABAC         : Yes
Format settings, Reference fra : 5 frames
Codec ID                       : V_MPEG4/ISO/AVC
Duration                       : 2 h 4 min
Bit rate                       : 899 kb/s
Width                          : 1 280 pixels
Height                         : 536 pixels
Display aspect ratio           : 2.40:1
Frame rate mode                : Constant
Frame rate                     : 24.000 FPS
Color space                    : YUV
Chroma subsampling             : 4:2:0
Bit depth                      : 8 bits
Scan type                      : Progressive
Bits/(Pixel*Frame)             : 0.055
Stream size                    : 803 MiB (90%)
Title                          : GOPI SAHI
Writing library                : x264 core 157 r2935 545de2f

Audio
ID                             : 2
Format                         : AAC LC
Format/Info                    : Advanced Audio Codec Low Complexity
Codec ID                       : A_AAC-2
Duration                       : 2 h 4 min
Bit rate                       : 96.0 kb/s
Channel(s)                     : 2 channels
Channel layout                 : L R
Sampling rate                  : 48.0 kHz
Frame rate                     : 46.875 FPS (1024 SPF)
Compression mode               : Lossy
Delay relative to video        : -21 ms
Stream size                    : 85.8 MiB (10%)
Title                          : GOPI SAHI
Language                       : Panjabi
Default                        : Yes
Forced                         : No

Text
ID                             : 3
Format                         : UTF-8
Codec ID                       : S_TEXT/UTF8
Codec ID/Info                  : UTF-8 Plain Text
Duration                       : 2 h 3 min
Bit rate                       : 106 b/s
Count of elements              : 2700
Stream size                    : 96.0 KiB (0%)
Title                          : GOPI SAHI
Language                       : English
Default                        : Yes
Forced                         : No

 

MAGNET

TORRENT

GDRIVE FILE COPY

DWONLOAD AUTO START IN 20 SEC

ONLINE 720P

MULTIUP

MEDIAFIRE ( DISABLE NOT WORK )