Ghar Ghar Ki Kahani 2021 x264 720p WebHD Hindi GOPI SAHI

 

 

Ghar Ghar Ki Kahani 2021 x264 720p WebHD Hindi GOPI SAHI


Format                         : Matroska
Format version                 : Version 4
File size                      : 710 MiB
Duration                       : 1 h 39 min
Overall bit rate               : 997 kb/s
Movie name                     : Ghar Ghar Ki Kahani 2021 GOPI SAHI
Encoded date                   : UTC 2021-01-24 04:24:30

Video
ID                             : 1
Format                         : AVC
Format/Info                    : Advanced Video Codec
Format profile                 : [email protected]
Format settings                : CABAC / 5 Ref Frames
Format settings, CABAC         : Yes
Format settings, Reference fra : 5 frames
Codec ID                       : V_MPEG4/ISO/AVC
Duration                       : 1 h 39 min
Bit rate                       : 899 kb/s
Width                          : 1 280 pixels
Height                         : 720 pixels
Display aspect ratio           : 16:9
Frame rate mode                : Constant
Frame rate                     : 24.000 FPS
Color space                    : YUV
Chroma subsampling             : 4:2:0
Bit depth                      : 8 bits
Scan type                      : Progressive
Bits/(Pixel*Frame)             : 0.041
Stream size                    : 640 MiB (90%)
Title                          : GOPI SAHI
Writing library                : x264 core 157 r2935 545de2f

Audio
ID                             : 2
Format                         : AAC LC
Format/Info                    : Advanced Audio Codec Low Complexity
Codec ID                       : A_AAC-2
Duration                       : 1 h 39 min
Bit rate                       : 96.0 kb/s
Channel(s)                     : 2 channels
Channel layout                 : L R
Sampling rate                  : 48.0 kHz
Frame rate                     : 46.875 FPS (1024 SPF)
Compression mode               : Lossy
Delay relative to video        : -21 ms
Stream size                    : 68.6 MiB (10%)
Title                          : GOPI SAHI
Language                       : Hindi
Default                        : Yes
Forced                         : No


 

MAGNET

TORRENT

GDRIVE FILE COPY

DWONLOAD AUTO START IN 20 SEC

ONLINE 720P

MULTIUP

MEDIAFIRE