Before I Wake 2016 x264 720p Esub BluRay Dual Audio English Hindi GOPI SAHI

Before I Wake (2016)

PG-13 | | Drama, Fantasy, Horror | 5 January 2018 (USA)
 
 
A couple adopt an orphaned child whose dreams - and nightmares - manifest physically as he sleeps.
EN

Director:

Mike Flanagan
 
6.2/10
39,707
Directed byMike Flanagan
Produced by
  • Sam Englebardt
  • William D. Johnson
  • Trevor Macy
Written by
  • Mike Flanagan
  • Jeff Howard
Starring
Music by
CinematographyMichael Fimognari
Edited byMike Flanagan
Production
company
Distributed byNetflix
Release date
  • July 31, 2016 (Fantasia)
  • January 5, 2018 (United States)
Running time
97 minutes[1]
CountryUnited States
LanguageEnglish
Box office$4.9 million[2]

 

 

 Before I Wake 2016 x264 720p Esub BluRay Dual Audio English Hindi GOPI SAHI

Format                         : Matroska
Format version                 : Version 4
File size                      : 728 MiB
Duration                       : 1 h 33 min
Overall bit rate               : 1 094 kb/s
Movie name                     : Before I Wake 2018 GOPI SAHI
Encoded date                   : UTC 2021-01-13 04:39:28

Video
ID                             : 1
Format                         : AVC
Format/Info                    : Advanced Video Codec
Format profile                 : [email protected]
Format settings                : CABAC / 5 Ref Frames
Format settings, CABAC         : Yes
Format settings, Reference fra : 5 frames
Codec ID                       : V_MPEG4/ISO/AVC
Duration                       : 1 h 33 min
Bit rate                       : 899 kb/s
Width                          : 1 280 pixels
Height                         : 720 pixels
Display aspect ratio           : 16:9
Frame rate mode                : Constant
Frame rate                     : 25.000 FPS
Color space                    : YUV
Chroma subsampling             : 4:2:0
Bit depth                      : 8 bits
Scan type                      : Progressive
Bits/(Pixel*Frame)             : 0.039
Stream size                    : 597 MiB (82%)
Title                          : GOPI SAHI
Writing library                : x264 core 157 r2935 545de2f

Audio #1
Format                         : AAC LC
Duration                       : 1 h 33 min
Bit rate                       : 96.0 kb/s
Channel(s)                     : 2 channels
Channel layout                 : L R
Sampling rate                  : 48.0 kHz
Frame rate                     : 46.875 FPS (1024 SPF)
Compression mode               : Lossy
Delay relative to video        : -21 ms
Stream size                    : 64.2 MiB (9%)
Title                          : GOPI SAHI
Language                       : Hindi

Audio #2
Format                         : AAC LC
Duration                       : 1 h 33 min
Bit rate                       : 96.0 kb/s
Channel(s)                     : 2 channels
Channel layout                 : L R
Sampling rate                  : 48.0 kHz
Frame rate                     : 46.875 FPS (1024 SPF)
Compression mode               : Lossy
Delay relative to video        : -21 ms
Stream size                    : 64.2 MiB (9%)
Title                          : GOPI SAHI
Language                       : English

Text
Language                       : English

 

MAGNET

TORRENT


GDRIVE FILE COPY

DWONLOAD AUTO START IN 20 SEC

ONLINE 720P

MULTIUP

MEDIAFIRE