A Game Called Relationship 2021 WebHD x264 720p Hindi THE GOPI SAHI

 

A Game Called Relationship (2020)

A celebrity power couple who is in a live-in relationship fake their breakup to see how far their pursuers will go to win them over.
EN
8.6/10
81

 

 

A Game Called Relationship 2021 WebHD x264 720p Hindi THE GOPI SAHI


Format                         : Matroska
Format version                 : Version 4
File size                      : 757 MiB
Duration                       : 1 h 42 min
Overall bit rate               : 1 030 kb/s
Movie name                     : A Game Called Relationship 2021 THE GOPI SAHI
Encoded date                   : UTC 2021-01-27 13:48:52

Video
ID                             : 1
Format                         : AVC
Format/Info                    : Advanced Video Codec
Format profile                 : [email protected]
Format settings                : CABAC / 5 Ref Frames
Format settings, CABAC         : Yes
Format settings, Reference fra : 5 frames
Codec ID                       : V_MPEG4/ISO/AVC
Duration                       : 1 h 42 min
Bit rate                       : 900 kb/s
Width                          : 1 280 pixels
Height                         : 536 pixels
Display aspect ratio           : 2.40:1
Frame rate mode                : Constant
Frame rate                     : 24.000 FPS
Color space                    : YUV
Chroma subsampling             : 4:2:0
Bit depth                      : 8 bits
Scan type                      : Progressive
Bits/(Pixel*Frame)             : 0.055
Stream size                    : 661 MiB (87%)
Title                          : THE GOPI SAHI
Writing library                : x264 core 157 r2935 545de2f

Audio
ID                             : 2
Format                         : AAC LC
Format/Info                    : Advanced Audio Codec Low Complexity
Codec ID                       : A_AAC-2
Duration                       : 1 h 42 min
Bit rate                       : 128 kb/s
Channel(s)                     : 2 channels
Channel layout                 : L R
Sampling rate                  : 48.0 kHz
Frame rate                     : 46.875 FPS (1024 SPF)
Compression mode               : Lossy
Stream size                    : 94.1 MiB (12%)
Title                          : THE GOPI SAHI
Language                       : Hindi
Default                        : Yes
Forced                         : No

 

 

MAGNET

TORRENT

GDRIVE FILE COPY


DWONLOAD AUTO START IN 20 SEC


ONLINE 720P


MULTIUP

MEDIAFIRE