Unpaused 2020 x264 720p Esub AmaZoNe Hindi GOPI SAHI

Unpaused (2020)

 
 
The plot focuses on the fall and ultimate rise of Chadha's character as she comes to terms with her husband's indiscretions with the help of a friendly neighbour. Tannishtha's movie ... See full summary »
EN

Writers:

Devika Bhagat (Story & Screenplay), Tarun Dudeja (Script, Screenplay & dialogue) | 6 more credits »
 
8.8/10
10

 

Unpaused 2020 x264 720p Esub AmaZoNe Hindi GOPI SAHI

Format                         : Matroska
Format version                 : Version 4
File size                      : 808 MiB
Duration                       : 1 h 53 min
Overall bit rate               : 998 kb/s
Movie name                     : Unpaused 2020 GOPI SAHI
Encoded date                   : UTC 2020-12-18 05:20:21


Video
ID                             : 1
Format                         : AVC
Format/Info                    : Advanced Video Codec
Format profile                 : [email protected]
Format settings                : CABAC / 5 Ref Frames
Format settings, CABAC         : Yes
Format settings, Reference fra : 5 frames
Codec ID                       : V_MPEG4/ISO/AVC
Duration                       : 1 h 53 min
Bit rate                       : 899 kb/s
Width                          : 1 280 pixels
Height                         : 638 pixels
Display aspect ratio           : 2.006
Frame rate mode                : Constant
Frame rate                     : 24.000 FPS
Color space                    : YUV
Chroma subsampling             : 4:2:0
Bit depth                      : 8 bits
Scan type                      : Progressive
Bits/(Pixel*Frame)             : 0.046
Stream size                    : 728 MiB (90%)
Title                          : GOPI SAHI
Writing library                : x264 core 157 r2935 545de2f

Audio
ID                             : 2
Format                         : AAC LC
Format/Info                    : Advanced Audio Codec Low Complexity
Codec ID                       : A_AAC-2
Duration                       : 1 h 53 min
Bit rate                       : 96.0 kb/s
Channel(s)                     : 2 channels
Channel layout                 : L R
Sampling rate                  : 48.0 kHz
Frame rate                     : 46.875 FPS (1024 SPF)
Compression mode               : Lossy
Delay relative to video        : -21 ms
Stream size                    : 78.1 MiB (10%)
Title                          : GOPI SAHI
Language                       : Hindi
Default                        : Yes
Forced                         : No

Text
ID                             : 3
Format                         : UTF-8
Codec ID                       : S_TEXT/UTF8
Codec ID/Info                  : UTF-8 Plain Text
Duration                       : 1 h 49 min
Bit rate                       : 57 b/s
Count of elements              : 1515
Stream size                    : 46.4 KiB (0%)
Title                          : GOPI SAHI
Language                       : English
Default                        : Yes
Forced                         : No

Menu
00:00:00.000                   : :Amazon Original
00:00:05.167                   : :Title Sequence
00:00:15.000                   : :Ahan goes on a date
00:06:36.000                   : :Ahan apologizes to Ayesha
00:11:09.167                   : :Ahan impresses Ayesha with sign language
00:14:30.083                   : :Ahan becomes worried about Ayesha
00:20:40.000                   : :Devika and Sahil have an argument
00:26:26.208                   : :Devika becomes depressed after the break up
00:31:31.208                   : :Devika assures Chirag to remove the pots
00:38:24.167                   : :Chirag makes Devika to reconsider her decision
00:43:01.208                   : :Devika tells her decision to Pragya and Sahil
00:45:28.000                   : :Archana refuses to take help from Priyanka
00:49:46.167                   : :Priyanka moves into Archana's home
00:54:41.125                   : :Priyanka and Archana become friends
00:58:10.125                   : :Priyanka and Archana share their stories
01:04:59.167                   : :Priyanka calls her mother
01:08:53.042                   : :Manish finds it difficult to arrange money
01:14:25.042                   : :Manish and Seema shoot a video
01:20:37.167                   : :Manish and family vacate the flat
01:28:44.000                   : :Cop forces the old woman to get into Rafiq's auto
01:33:37.083                   : :Rafiq helps the old woman
01:36:58.042                   : :Old Woman and Rafiq discuss about their families
01:43:12.208                   : :Rafiq comes back to meet the old woman
01:50:34.000                   : :End Credits


 

 MAGNET

TORRENT


GDRIVE FILE COPY

DWONLOAD AUTO START IN 20 SEC


ONLINE 720P

MULTIUP