Tenet 2020 x264 720p Esub BluRay Dual Audio English Hindi GOPI SAHI


Tenet (2020)

PG-13 | | Action, Sci-Fi | 3 September 2020 (USA) 
 
Armed with only one word, Tenet, and fighting for the survival of the entire world, a Protagonist journeys through a twilight world of international espionage on a mission that will unfold in something beyond real time.
EN

Director:

Christopher Nolan
 
7.7/10
176,477
Directed byChristopher Nolan
Produced by
Written byChristopher Nolan
Starring
Music byLudwig Göransson
CinematographyHoyte van Hoytema
Edited byJennifer Lame
Production
companies
Distributed byWarner Bros. Pictures
Release date
  • August 26, 2020 (United Kingdom)
  • September 3, 2020 (United States)
Running time
150 minutes[1]
Country
  • United Kingdom[2]
  • United States[2]
LanguageEnglish
Budget$200 million[3]
Box office$359.7 million[4][5]

 

 

 

Tenet 2020 x264 720p Esub BluRay Dual Audio English Hindi GOPI SAHI

Format                         : Matroska
Format version                 : Version 4
File size                      : 1.16 GiB
Duration                       : 2 h 30 min
Overall bit rate               : 1 106 kb/s
Movie name                     : Tenet 2020 GOPI SAHI
Encoded date                   : UTC 2020-12-05 16:22:28

Video
ID                             : 1
Format                         : AVC
Format/Info                    : Advanced Video Codec
Format profile                 : [email protected]
Format settings                : CABAC / 5 Ref Frames
Format settings, CABAC         : Yes
Format settings, Reference fra : 5 frames
Codec ID                       : V_MPEG4/ISO/AVC
Duration                       : 2 h 30 min
Bit rate                       : 899 kb/s
Width                          : 1 280 pixels
Height                         : 582 pixels
Display aspect ratio           : 2.2:1
Frame rate mode                : Constant
Frame rate                     : 23.976 (24000/1001) FPS
Color space                    : YUV
Chroma subsampling             : 4:2:0
Bit depth                      : 8 bits
Scan type                      : Progressive
Bits/(Pixel*Frame)             : 0.050
Stream size                    : 965 MiB (81%)
Title                          : GOPI SAHI
Writing library                : x264 core 157 r2935 545de2f
Language                       : English
Default                        : Yes
Forced                         : No
Color range                    : Limited
Color primaries                : BT.709
Transfer characteristics       : BT.709
Matrix coefficients            : BT.709

Audio #1
ID                             : 2
Format                         : AAC LC
Format/Info                    : Advanced Audio Codec Low Complexity
Codec ID                       : A_AAC-2
Duration                       : 2 h 30 min
Bit rate                       : 96.0 kb/s
Channel(s)                     : 2 channels
Channel layout                 : L R
Sampling rate                  : 48.0 kHz
Frame rate                     : 46.875 FPS (1024 SPF)
Compression mode               : Lossy
Delay relative to video        : -21 ms
Stream size                    : 104 MiB (9%)
Title                          : GOPI SAHI
Language                       : Hindi
Default                        : Yes
Forced                         : No

Audio #2
ID                             : 3
Format                         : AAC LC
Format/Info                    : Advanced Audio Codec Low Complexity
Codec ID                       : A_AAC-2
Duration                       : 2 h 30 min
Bit rate                       : 96.0 kb/s
Channel(s)                     : 2 channels
Channel layout                 : L R
Sampling rate                  : 48.0 kHz
Frame rate                     : 46.875 FPS (1024 SPF)
Compression mode               : Lossy
Delay relative to video        : -21 ms
Stream size                    : 104 MiB (9%)
Title                          : GOPI SAHI
Language                       : English
Default                        : No
Forced                         : No

Text #1
ID                             : 4
Format                         : PGS
Muxing mode                    : zlib
Codec ID                       : S_HDMV/PGS
Codec ID/Info                  : Picture based subtitle format used on BDs/HD-DVDs
Duration                       : 2 h 12 min
Bit rate                       : 154 b/s
Count of elements              : 28
Stream size                    : 149 KiB (0%)
Title                          : GOPI SAHI
Language                       : Hindi
Default                        : Yes
Forced                         : Yes

Text #2
ID                             : 5
Format                         : PGS
Muxing mode                    : zlib
Codec ID                       : S_HDMV/PGS
Codec ID/Info                  : Picture based subtitle format used on BDs/HD-DVDs
Duration                       : 2 h 26 min
Bit rate                       : 36.4 kb/s
Count of elements              : 4274
Stream size                    : 38.3 MiB (3%)
Title                          : GOPI SAHI
Language                       : English
Default                        : No
Forced                         : No

Menu
00:00:00.000                   : :Chapter 1
00:09:39.412                   : :Chapter 2
00:19:30.503                   : :Chapter 3
00:28:18.405                   : :Chapter 4
00:38:49.369                   : :Chapter 5
00:49:20.166                   : :Chapter 6
01:00:33.255                   : :Chapter 7
01:09:41.511                   : :Chapter 8
01:22:36.410                   : :Chapter 9
01:30:54.741                   : :Chapter 10
01:39:40.683                   : :Chapter 11
01:51:02.406                   : :Chapter 12
01:59:40.799                   : :Chapter 13
02:11:42.853                   : :Chapter 14
02:19:07.256                   : :Chapter 15
 

 


TORRENT

 MAGNET

MULTIUP

 DWONLOAD AUTO START IN 20 SEC

GOOGLE DRIVE FILE COPY

ONLINE