London Fields 2018 x264 720p Esub BluRay Dual Audio English Hindi GOPI SAHI

 

London Fields (2018)

 
Clairvoyant femme fatale Nicola Six has been living with a dark premonition of her impending death by murder. She begins a tangled love affair with three uniquely different men: one of whom she knows will be her murderer.
EN

Director:

Mathew Cullen

Writers:

Roberta Hanley (screenplay by), Martin Amis (screenplay by) | 1 more credit »


4.2/10
5,965

 

Directed byMathew Cullen
Produced by
Screenplay by
Based onLondon Fields
by Martin Amis
Starring
Music by
CinematographyGuillermo Navarro
Edited by
Production
company
  • Hero Entertainment
  • PicturePro LLC
  • Gap Financing
  • Muse Productions
  • Media Talent Group
  • Mirada Studios
  • Demarest Films
  • Lipsync Productions
  • Head Gear Films
  • Blazepoint Limited
  • Curiously Bright Entertainment
  • Periscope Entertainment
  • Arrival Entertainment
  • Vedette Finance
  • Living the Dream Films
Distributed byGVN Releasing
Release date
  • 20 September 2018 (Russia)
  • 26 October 2018 (United States)
Running time
118 minutes
Country
  • United Kingdom
  • United States
LanguageEnglish
Budget$8 million[1]
Box office$487,420[2][3]

 

 London Fields 2018 x264 720p Esub BluRay Dual Audio English Hindi GOPI SAHI

Format                         : Matroska
Format version                 : Version 4
File size                      : 855 MiB
Duration                       : 1 h 48 min
Overall bit rate               : 1 102 kb/s
Movie name                     : London Fields 2018 GOPI SAHI
Encoded date                   : UTC 2020-12-15 08:43:13

Video
ID                             : 1
Format                         : AVC
Format/Info                    : Advanced Video Codec
Format profile                 : [email protected]
Format settings                : CABAC / 5 Ref Frames
Format settings, CABAC         : Yes
Format settings, Reference fra : 5 frames
Codec ID                       : V_MPEG4/ISO/AVC
Duration                       : 1 h 47 min
Bit rate                       : 899 kb/s
Width                          : 1 280 pixels
Height                         : 536 pixels
Display aspect ratio           : 2.40:1
Frame rate mode                : Constant
Frame rate                     : 23.976 (24000/1001) FPS
Color space                    : YUV
Chroma subsampling             : 4:2:0
Bit depth                      : 8 bits
Scan type                      : Progressive
Bits/(Pixel*Frame)             : 0.055
Stream size                    : 693 MiB (81%)
Title                          : GOPI SAHI
Writing library                : x264 core 157 r2935 545de2f

Audio #1
ID                             : 2
Format                         : AAC LC
Format/Info                    : Advanced Audio Codec Low Complexity
Codec ID                       : A_AAC-2
Duration                       : 1 h 48 min
Bit rate                       : 96.0 kb/s
Channel(s)                     : 2 channels
Channel layout                 : L R
Sampling rate                  : 48.0 kHz
Frame rate                     : 46.875 FPS (1024 SPF)
Compression mode               : Lossy
Delay relative to video        : 19 s 978 ms
Stream size                    : 74.2 MiB (9%)
Title                          : GOPI SAHI
Language                       : Hindi
Default                        : Yes
Forced                         : No

Audio #2
ID                             : 3
Format                         : AAC LC
Format/Info                    : Advanced Audio Codec Low Complexity
Codec ID                       : A_AAC-2
Duration                       : 1 h 47 min
Bit rate                       : 96.0 kb/s
Channel(s)                     : 2 channels
Channel layout                 : L R
Sampling rate                  : 48.0 kHz
Frame rate                     : 46.875 FPS (1024 SPF)
Compression mode               : Lossy
Delay relative to video        : -21 ms
Stream size                    : 74.4 MiB (9%)
Title                          : GOPI SAHI
Language                       : English
Default                        : No
Forced                         : No

Text #1
ID                             : 4
Format                         : PGS
Muxing mode                    : zlib
Codec ID                       : S_HDMV/PGS
Codec ID/Info                  : Picture based subtitle format used on BDs/HD-DVDs
Duration                       : 1 h 36 min
Bit rate                       : 1 529 b/s
Count of elements              : 174
Stream size                    : 1.06 MiB (0%)
Title                          : GOPI SAHI
Language                       : Hindi
Default                        : Yes
Forced                         : Yes

Text #2
ID                             : 5
Format                         : PGS
Muxing mode                    : zlib
Codec ID                       : S_HDMV/PGS
Codec ID/Info                  : Picture based subtitle format used on BDs/HD-DVDs
Duration                       : 1 h 47 min
Bit rate                       : 25.0 kb/s
Count of elements              : 2572
Stream size                    : 19.2 MiB (2%)
Title                          : GOPI SAHI
Language                       : Hindi
Default                        : No
Forced                         : No

Text #3
ID                             : 6
Format                         : PGS
Muxing mode                    : zlib
Codec ID                       : S_HDMV/PGS
Codec ID/Info                  : Picture based subtitle format used on BDs/HD-DVDs
Duration                       : 1 h 46 min
Bit rate                       : 25.2 kb/s
Count of elements              : 2958
Stream size                    : 19.1 MiB (2%)
Title                          : GOPI SAHI
Language                       : English
Default                        : No
Forced                         : No

Menu
00:00:00.000                   : :Chapter 1
00:15:57.623                   : :Chapter 2
00:28:36.006                   : :Chapter 3
00:41:57.890                   : :Chapter 4
00:53:24.326                   : :Chapter 5
01:07:31.589                   : :Chapter 6
01:20:45.632                   : :Chapter 7
01:42:51.374                   : :Chapter 8

 

MAGNET

TORRENT

GDRIVE FILE COPY

DWONLOAD AUTO START IN 20 SEC

ONLINE 720P

MULTIUP

 ONLINE 720P