Harami 2020 PRE RIP Hindi GOPI SAHI

Harami (2020)

 
An orphan teenage pickpocket working the trains of Mumbai along with his gang, embarks on a life-altering journey when faced by the daughter of one of his victims who's committed suicide after being robbed.
EN

Director:

Shyam Madiraju
 
8.1/10
112


Harami 2020 PRE RIP Hindi GOPI SAHI


Format                         : Matroska
Format version                 : Version 4
File size                      : 713 MiB
Duration                       : 1 h 39 min
Overall bit rate               : 997 kb/s
Movie name                     : Harami 2020 PRE RIP GOPI SAHI
Encoded date                   : UTC 2020-12-16 06:23:29

Video
ID                             : 1
Format                         : AVC
Format/Info                    : Advanced Video Codec
Format profile                 : [email protected]
Format settings                : CABAC / 5 Ref Frames
Format settings, CABAC         : Yes
Format settings, Reference fra : 5 frames
Codec ID                       : V_MPEG4/ISO/AVC
Duration                       : 1 h 39 min
Bit rate                       : 899 kb/s
Width                          : 1 280 pixels
Height                         : 536 pixels
Display aspect ratio           : 2.40:1
Frame rate mode                : Constant
Frame rate                     : 30.000 FPS
Color space                    : YUV
Chroma subsampling             : 4:2:0
Bit depth                      : 8 bits
Scan type                      : Progressive
Bits/(Pixel*Frame)             : 0.044
Stream size                    : 642 MiB (90%)
Title                          : GOPI SAHI
Writing library                : x264 core 157 r2935 545de2f
Transfer characteristics       : BT.709
Matrix coefficients            : BT.709

Audio
ID                             : 2
Format                         : AAC LC
Format/Info                    : Advanced Audio Codec Low Complexity
Codec ID                       : A_AAC-2
Duration                       : 1 h 39 min
Bit rate                       : 96.0 kb/s
Channel(s)                     : 2 channels
Channel layout                 : L R
Sampling rate                  : 44.1 kHz
Frame rate                     : 43.066 FPS (1024 SPF)
Compression mode               : Lossy
Delay relative to video        : -23 ms
Stream size                    : 68.9 MiB (10%)
Title                          : GOPI SAHI
Language                       : Hindi
Default                        : Yes
Forced                         : No

 

 MAGNET

TORRENT

GDRIVE FILE COPY

DWONLOAD AUTO START IN 20 SEC

ONLINE 720P

ONLINE720P

MULTIUP