Durgamati- The Myth 2020 x264 720p Esub AmaZoNe Hindi GOPI SAHI

Durgamati: The Myth (2020)

 
 
A bureaucrat is imprisoned in a haunted house for interrogation. However, things take an unexpected turn when she gets possessed by a spirit.
EN

Director:

Ashok G.

Writer:

Ashok G.
 
3.9/10
1,523 

 

 Durgamati- The Myth 2020 x264 720p Esub AmaZoNe Hindi GOPI SAHI

Format                         : Matroska
Format version                 : Version 4
File size                      : 1.08 GiB
Duration                       : 2 h 35 min
Overall bit rate               : 997 kb/s
Movie name                     : Durgamati: The Myth 2020 GOPI SAHI
Encoded date                   : UTC 2020-12-12 06:00:08

Video
ID                             : 1
Format                         : AVC
Format/Info                    : Advanced Video Codec
Format profile                 : [email protected]
Format settings                : CABAC / 5 Ref Frames
Format settings, CABAC         : Yes
Format settings, Reference fra : 5 frames
Codec ID                       : V_MPEG4/ISO/AVC
Duration                       : 2 h 35 min
Bit rate                       : 899 kb/s
Width                          : 1 280 pixels
Height                         : 534 pixels
Display aspect ratio           : 2.40:1
Frame rate mode                : Constant
Frame rate                     : 24.000 FPS
Color space                    : YUV
Chroma subsampling             : 4:2:0
Bit depth                      : 8 bits
Scan type                      : Progressive
Bits/(Pixel*Frame)             : 0.055
Stream size                    : 1 000 MiB (90%)
Title                          : GOPI SAHI
Writing library                : x264 core 157 r2935 545de2f

Audio
ID                             : 2
Format                         : AAC LC
Format/Info                    : Advanced Audio Codec Low Complexity
Codec ID                       : A_AAC-2
Duration                       : 2 h 35 min
Bit rate                       : 96.0 kb/s
Channel(s)                     : 2 channels
Channel layout                 : L R
Sampling rate                  : 48.0 kHz
Frame rate                     : 46.875 FPS (1024 SPF)
Compression mode               : Lossy
Delay relative to video        : -21 ms
Stream size                    : 107 MiB (10%)
Title                          : GOPI SAHI
Language                       : Hindi
Default                        : Yes
Forced                         : No

Text
ID                             : 3
Format                         : UTF-8
Codec ID                       : S_TEXT/UTF8
Codec ID/Info                  : UTF-8 Plain Text
Duration                       : 2 h 29 min
Bit rate                       : 54 b/s
Count of elements              : 1768
Stream size                    : 59.4 KiB (0%)
Title                          : GOPI SAHI
Language                       : English
Default                        : Yes
Forced                         : No

Menu
00:00:00.000                   : :Studio Logos
00:01:56.000                   : :Sudden attack on the villagers
00:03:42.000                   : :Opening Credits
00:05:02.000                   : :Ishwar Prasad announces his successor
00:14:16.000                   : :Satakshi selects a place to interrogate Chanchal
00:19:49.000                   : :Chanchal is shifted to Durgamati Mansion
00:28:05.000                   : :Shakti gets injured during the riots
00:33:27.000                   : :Chanchal and Shakti get engaged
00:41:46.000                   : :Satakshi interrogates Chanchal
00:50:13.000                   : :Chanchal requests Nand Singh to release her
00:59:57.000                   : :The interrogation continues
01:05:15.000                   : :Chanchal gets possessed
01:17:20.000                   : :Durgamati tells her story
01:29:34.000                   : :Psychiatrist asks Satakshi to shift Chanchal from the mansion
01:34:21.000                   : :Tantrik steps into the mansion to check for ghosts
01:39:58.000                   : :Shakti stops the villagers from vacating their homes
01:46:42.000                   : :Chanchal and ACP Abhay get injured
01:55:14.000                   : :Satakshi comes to learn about Chanchal's story
02:04:31.000                   : :Ishwar Prasad shows his true colors
02:09:16.000                   : :Ishwar Prasad holds a press meet outside the asylum
02:17:32.000                   : :Ishwar Prasad threatens to kill the innocent
02:27:00.000                   : :Chanchal manages to save people and the power project
02:32:26.000                   : :End Credits