Coolie No. 1 2020 x264 720p Esub AmaZoNe Hindi GOPI SAHI

Coolie No. 1 (2020)

 
 

Post-production

Expected December 25, 2020
After being insulted by a rich businessman named Rosario, pandit Jai Kishen teaches him a lesson by getting his daughter married to Raju - a Coolie posing as a millionaire. Soon Raju's real... See full summary »
EN

Director:

David Dhawan

Writers:

Rumi Jaffery (screenplay), Farhad Samji (dialogue)
 
 
1.7/10
1,300
 
Directed byDavid Dhawan
Produced by
Written byScreenplay:
Rumi Jaffrey
Dialogues:
Farhad Samji
Based onCoolie No. 1
Starring
Music byScore:
Salim–Sulaiman
Songs:
Tanishk Bagchi
Lijo George – DJ Chetas
Javed – Mohsin
Salim–Sulaiman
CinematographyRavi K. Chandran
Edited byRitesh Soni
Production
company
Distributed byAmazon Prime Video
Release date
  • 25 December 2020[1]
Running time
135 minutes
CountryIndia
LanguageHindi
Budget50 crore (US$7.0 million)

 

 

Coolie No. 1 2020 x264 720p Esub AmaZoNe Hindi GOPI SAHI

Format                         : Matroska
Format version                 : Version 4
File size                      : 959 MiB
Duration                       : 2 h 14 min
Overall bit rate               : 997 kb/s
Movie name                     : Coolie No. 1 2020 GOPI SAHI
Encoded date                   : UTC 2020-12-25 13:37:37
Writing application            : mkvmerge v46.0.0 ('No Deeper Escape') 32-bit
Writing library                : libebml v1.3.10 + libmatroska v1.5.2

Video
ID                             : 1
Format                         : AVC
Format/Info                    : Advanced Video Codec
Format profile                 : [email protected]
Format settings                : CABAC / 5 Ref Frames
Format settings, CABAC         : Yes
Format settings, Reference fra : 5 frames
Codec ID                       : V_MPEG4/ISO/AVC
Duration                       : 2 h 14 min
Bit rate                       : 899 kb/s
Width                          : 1 280 pixels
Height                         : 544 pixels
Display aspect ratio           : 2.35:1
Frame rate mode                : Constant
Frame rate                     : 24.000 FPS
Color space                    : YUV
Chroma subsampling             : 4:2:0
Bit depth                      : 8 bits
Scan type                      : Progressive
Bits/(Pixel*Frame)             : 0.054
Stream size                    : 865 MiB (90%)
Title                          : GOPI SAHI
Writing library                : x264 core 157 r2935 545de2f

Audio
ID                             : 2
Format                         : AAC LC
Format/Info                    : Advanced Audio Codec Low Complexity
Codec ID                       : A_AAC-2
Duration                       : 2 h 14 min
Bit rate                       : 96.0 kb/s
Channel(s)                     : 2 channels
Channel layout                 : L R
Sampling rate                  : 48.0 kHz
Frame rate                     : 46.875 FPS (1024 SPF)
Compression mode               : Lossy
Delay relative to video        : -21 ms
Stream size                    : 92.3 MiB (10%)
Title                          : GOPI SAHI
Language                       : Hindi
Default                        : Yes
Forced                         : No

Text
Language                       : English

 

 MAGNET

TORRENT


GDRIVE FILE COPY


DWONLOAD AUTO START IN 20 SEC

ONLINE 720P

MULTIUP