xXx- State of the Union 2005 x264 720p Esub BluRay Dual Audio English Hindi GOPI SAHI

 

xXx: State of the Union (2005)

 
 
Darius Stone, a new agent in the xXx program, is sent to Washington, D.C. to stop a coup attempt against the President of the United States.
EN

Director:

Lee Tamahori

Writers:

Rich Wilkes (characters), Simon Kinberg
 
4.4/10
66,674
Directed byLee Tamahori
Produced by
Written bySimon Kinberg
Based onCharacters
by Rich Wilkes
Starring
Music byMarco Beltrami
CinematographyDavid Tattersall
Edited by
Production
companies
Distributed bySony Pictures Releasing
Release date
  • April 29, 2005
Running time
101 minutes[1]
CountryUnited States
LanguageEnglish
Budget$60–87 million[2][3]
Box office$71.1 million[2]

 


xXx State of the Union 2005 GOPI SAHI


Format                         : Matroska
Format version                 : Version 4
File size                      : 938 MiB
Duration                       : 1 h 40 min
Overall bit rate               : 1 299 kb/s
Movie name                     : xXx: State of the Union 2005 GOPISAHI
Encoded date                   : UTC 2017-08-07 14:44:20

Video
ID                             : 1
Format                         : AVC
Format/Info                    : Advanced Video Codec
Format profile                 : [email protected]
Format settings                : CABAC / 12 Ref Frames
Format settings, CABAC         : Yes
Format settings, Reference fra : 12 frames
Codec ID                       : V_MPEG4/ISO/AVC
Duration                       : 1 h 40 min
Bit rate                       : 1 009 kb/s
Width                          : 1 280 pixels
Height                         : 528 pixels
Display aspect ratio           : 2.40:1
Frame rate mode                : Constant
Frame rate                     : 23.976 (24000/1001) FPS
Color space                    : YUV
Chroma subsampling             : 4:2:0
Bit depth                      : 8 bits
Scan type                      : Progressive
Bits/(Pixel*Frame)             : 0.062
Stream size                    : 728 MiB (78%)
Title                          : GOPISAHI
Writing library                : x264 core 129 r2245 bc13772


Audio #1
ID                             : 2
Format                         : AAC LC
Format/Info                    : Advanced Audio Codec Low Complexity
Codec ID                       : A_AAC-2
Duration                       : 1 h 40 min
Bit rate                       : 96.0 kb/s
Channel(s)                     : 2 channels
Channel layout                 : L R
Sampling rate                  : 48.0 kHz
Frame rate                     : 46.875 FPS (1024 SPF)
Compression mode               : Lossy
Delay relative to video        : -125 ms
Stream size                    : 69.3 MiB (7%)
Title                          : GOPISAHI
Language                       : English
Default                        : No
Forced                         : No

Audio #2
ID                             : 4
Format                         : AC-3
Format/Info                    : Audio Coding 3
Commercial name                : Dolby Digital
Codec ID                       : A_AC3
Duration                       : 1 h 40 min
Bit rate mode                  : Constant
Bit rate                       : 192 kb/s
Channel(s)                     : 6 channels
Channel layout                 : L R C LFE Ls Rs
Sampling rate                  : 48.0 kHz
Frame rate                     : 31.250 FPS (1536 SPF)
Compression mode               : Lossy
Delay relative to video        : 2 s 517 ms
Stream size                    : 139 MiB (15%)
Title                          : GOPISAHI
Language                       : Hindi
Service kind                   : Complete Main
Default                        : Yes
Forced                         : No

Text
ID                             : 3
Format                         : UTF-8
Codec ID                       : S_TEXT/UTF8
Codec ID/Info                  : UTF-8 Plain Text
Duration                       : 1 h 33 min
Bit rate                       : 54 b/s
Count of elements              : 1063
Stream size                    : 37.3 KiB (0%)
Title                          : GOPISAHI
Language                       : English
Default                        : Yes
Forced                         : No



 

MAGNET

TORRENT


MULTIUP

ANONFILES

BAYFILES

DWONLOAD AUTO START IN 20 SEC WAIT

DWONLOAD AUTO START IN 20 SEC WAIT

GDRIVE

CLOUDRU

MEDIAFIRE

DOSYA

USAUPLOAD


ONLINE 720P

ONLINE 720P 2