xXx Return of Xander Cage 2017 x264 720p Esub BluRay Dual Audio English Hindi GOPI SAHI

 

xXx: Return of Xander Cage (2017)

 
 
 
Xander Cage is left for dead after an incident, though he secretly returns to action for a new, tough assignment with his handler Augustus Gibbons.
EN

Director:

D.J. Caruso

Writers:

Rich Wilkes (based on characters created by), F. Scott Frazier
 
5.2/10

84,009

Directed byD. J. Caruso
Produced by
Written byF. Scott Frazier
Based onCharacters
by Rich Wilkes
Starring
Music by
CinematographyRussell Carpenter
Edited by
  • Jim Page
  • Vince Filippone
Production
company
Distributed byParamount Pictures[4]
Release date
  • January 5, 2017 (Mexico City)
  • January 20, 2017 (United States)
Running time
107 minutes[5]
CountryUnited States[6]
LanguageEnglish
Budget$85 million[5]
Box office$346.1 million[5]


 xXx Return of Xander Cage 2017 GOPI SAHI


Format                         : Matroska
Format version                 : Version 4
File size                      : 843 MiB
Duration                       : 1 h 46 min
Overall bit rate               : 1 104 kb/s
Movie name                     : xXx Return of Xander Cage 2017 GOPISAHI
Encoded date                   : UTC 2020-03-20 10:20:55

Video
ID                             : 1
Format                         : AVC
Format/Info                    : Advanced Video Codec
Format profile                 : [email protected]
Format settings                : CABAC / 12 Ref Frames
Format settings, CABAC         : Yes
Format settings, Reference fra : 12 frames
Codec ID                       : V_MPEG4/ISO/AVC
Duration                       : 1 h 46 min
Bit rate                       : 899 kb/s
Width                          : 1 280 pixels
Height                         : 534 pixels
Display aspect ratio           : 2.40:1
Frame rate mode                : Constant
Frame rate                     : 23.976 (24000/1001) FPS
Color space                    : YUV
Chroma subsampling             : 4:2:0
Bit depth                      : 8 bits
Scan type                      : Progressive
Bits/(Pixel*Frame)             : 0.055
Stream size                    : 686 MiB (81%)
Title                          : GOPISAHI
Writing library                : x264 core 157 r2935 545de2f

Audio #1
ID                             : 2
Format                         : AAC LC
Format/Info                    : Advanced Audio Codec Low Complexity
Codec ID                       : A_AAC-2
Duration                       : 1 h 46 min
Bit rate                       : 96.0 kb/s
Channel(s)                     : 2 channels
Channel layout                 : L R
Sampling rate                  : 48.0 kHz
Frame rate                     : 46.875 FPS (1024 SPF)
Compression mode               : Lossy
Delay relative to video        : -21 ms
Stream size                    : 73.5 MiB (9%)
Title                          : GOPISAHI
Language                       : Hindi
Default                        : Yes
Forced                         : No

Audio #2
ID                             : 3
Format                         : AAC LC
Format/Info                    : Advanced Audio Codec Low Complexity
Codec ID                       : A_AAC-2
Duration                       : 1 h 46 min
Bit rate                       : 96.0 kb/s
Channel(s)                     : 2 channels
Channel layout                 : L R
Sampling rate                  : 48.0 kHz
Frame rate                     : 46.875 FPS (1024 SPF)
Compression mode               : Lossy
Delay relative to video        : -21 ms
Stream size                    : 73.5 MiB (9%)
Title                          : GOPISAHI
Language                       : English
Default                        : No
Forced                         : No

Text #1
ID                             : 4
Format                         : VobSub
Muxing mode                    : zlib
Codec ID                       : S_VOBSUB
Codec ID/Info                  : Picture based subtitle format used on DVDs
Duration                       : 1 h 36 min
Bit rate                       : 7 745 b/s
Count of elements              : 1122
Stream size                    : 5.33 MiB (1%)
Title                          : GOPISAHI
Language                       : English
Default                        : No
Forced                         : No

Text #2
ID                             : 5
Format                         : VobSub
Muxing mode                    : zlib
Codec ID                       : S_VOBSUB
Codec ID/Info                  : Picture based subtitle format used on DVDs
Duration                       : 1 h 38 min
Bit rate                       : 9 197 b/s
Count of elements              : 1392
Stream size                    : 6.51 MiB (1%)
Title                          : GOPISAHI
Language                       : English
Default                        : No
Forced                         : No





 MAGNET

TORRENT

MULTIUP

ANONFILES

BAYFILES

DWONLOAD AUTO START IN 20 SEC WAIT

DWONLOAD AUTO START IN 20 SEC WAIT

GDRIVE

CLOUDRU

MEDIAFIRE

DOSYA


USAUPLOAD

ONLINE 720P

ONLINE 720P 2