World Trade Center 2006 x264 720p Esub BluRay Dual Audio English Hindi GOPI SAHI


World Trade Center (2006)

 

 PG-13 | | Drama, History, Thriller | 9 August 2006 (USA)

Two Port Authority police officers become trapped under the rubble of the World Trade Center.
EN

Director:

Oliver Stone

Writers:

Andrea Berloff, John McLoughlin (true story) | 3 more credits »
 
 
Directed byOliver Stone
Produced by
Written byAndrea Berloff
Starring
Music byCraig Armstrong
CinematographySeamus McGarvey
Edited by
Distributed byParamount Pictures
Release date
  • August 9, 2006
Running time
129 minutes[1]
CountryUnited States
LanguageEnglish
Budget$65 million[2]
Box office$163.2 million[2]


World Trade Center 2006 x264 720p Esub BluRay Dual Audio English Hindi GOPI SAHI

Format                         : Matroska
Format version                 : Version 4
File size                      : 1.01 GiB
Duration                       : 2 h 9 min
Overall bit rate               : 1 115 kb/s
Movie name                     : World Trade Center 2006 GOPI SAHI
Encoded date                   : UTC 2020-10-07 06:16:59
Writing application            : mkvmerge v46.0.0 ('No Deeper Escape') 32-bit
Writing library                : libebml v1.3.10 + libmatroska v1.5.2

Video
ID                             : 1
Format                         : AVC
Format/Info                    : Advanced Video Codec
Format profile                 : [email protected]
Format settings                : CABAC / 5 Ref Frames
Format settings, CABAC         : Yes
Format settings, Reference fra : 5 frames
Codec ID                       : V_MPEG4/ISO/AVC
Duration                       : 2 h 9 min
Bit rate                       : 899 kb/s
Width                          : 1 280 pixels
Height                         : 720 pixels
Display aspect ratio           : 16:9
Frame rate mode                : Constant
Frame rate                     : 23.976 (24000/1001) FPS
Color space                    : YUV
Chroma subsampling             : 4:2:0
Bit depth                      : 8 bits
Scan type                      : Progressive
Bits/(Pixel*Frame)             : 0.041
Stream size                    : 830 MiB (80%)
Title                          : GOPI SAHI
Writing library                : x264 core 157 r2935 545de2f

Audio #1
ID                             : 2
Format                         : AAC LC
Format/Info                    : Advanced Audio Codec Low Complexity
Codec ID                       : A_AAC-2
Duration                       : 2 h 9 min
Bit rate                       : 96.0 kb/s
Channel(s)                     : 2 channels
Channel layout                 : L R
Sampling rate                  : 48.0 kHz
Frame rate                     : 46.875 FPS (1024 SPF)
Compression mode               : Lossy
Delay relative to video        : 3 s 249 ms
Stream size                    : 89.0 MiB (9%)
Title                          : GOPI SAHI
Language                       : Hindi
Default                        : Yes
Forced                         : No

Audio #2
ID                             : 3
Format                         : AAC LC
Format/Info                    : Advanced Audio Codec Low Complexity
Codec ID                       : A_AAC-2
Duration                       : 2 h 9 min
Bit rate                       : 96.0 kb/s
Channel(s)                     : 2 channels
Channel layout                 : L R
Sampling rate                  : 48.0 kHz
Frame rate                     : 46.875 FPS (1024 SPF)
Compression mode               : Lossy
Delay relative to video        : -21 ms
Stream size                    : 89.1 MiB (9%)
Title                          : GOPI SAHI
Language                       : English
Default                        : No
Forced                         : No

Text #1
ID                             : 4
Format                         : PGS
Muxing mode                    : zlib
Codec ID                       : S_HDMV/PGS
Codec ID/Info                  : Picture based subtitle format used on BDs/HD-DVDs
Duration                       : 2 h 0 min
Bit rate                       : 23.0 kb/s
Count of elements              : 3250
Stream size                    : 19.8 MiB (2%)
Title                          : GOPI SAHI
Language                       : Hindi
Default                        : No
Forced                         : No

Text #2
ID                             : 5
Format                         : PGS
Muxing mode                    : zlib
Codec ID                       : S_HDMV/PGS
Codec ID/Info                  : Picture based subtitle format used on BDs/HD-DVDs
Duration                       : 1 h 56 min
Bit rate                       : 34.2 kb/s
Count of elements              : 2884
Stream size                    : 28.5 MiB (3%)
Title                          : GOPI SAHI
Language                       : English
Default                        : No
Forced                         : No

Menu
00:00:00.000                   : :Chapter 1
00:13:22.802                   : :Chapter 2
00:24:48.487                   : :Chapter 3
00:37:49.017                   : :Chapter 4
00:45:04.619                   : :Chapter 5
00:59:08.170                   : :Chapter 6
01:11:16.814                   : :Chapter 7
01:22:45.627                   : :Chapter 8




 MAGNET

TORRENT

MULTIUP

ANONFILES

BAYFILES

DWONLOAD AUTO START IN 20 SEC WAIT

DWONLOAD AUTO START IN 20 SEC WAIT

GDRIVE


CLOUDRU

MEDIAFIRE

ONLINE 720P


ONLINE 720P 2