What They Had 2018 x264 720p Esub NetFLix Dual Audio Hindi English GOPI SAHI

What They Had (2018)

 
Bridget returns home at her brother's urging to deal with her ailing mother and her father's reluctance to let go of their life together.
EN

Director:

Elizabeth Chomko
 
6.6/10
3,188
Directed byElizabeth Chomko
Produced by
Written byElizabeth Chomko
Starring
Music byDanny Mulhern
CinematographyRoberto Schaefer
Edited byTom McArdle
Production
company
  • Unified Pictures
  • Bona Fide Productions
  • Look to the Sky Films
  • June Pictures
Distributed byBleecker Street
Release date
  • January 21, 2018 (Sundance)
  • October 19, 2018
Running time
101 minutes[1]
CountryUnited States
LanguageEnglish
Box office$260,136[2]

What They Had 2018 x264 720p Esub NetFLix Dual Audio Hindi English GOPI SAHI


Format                         : Matroska
Format version                 : Version 4
File size                      : 791 MiB
Duration                       : 1 h 41 min
Overall bit rate               : 1 094 kb/s
Movie name                     : What They Had 2018 GOPI SAHI
Encoded date                   : UTC 2020-10-21 01:42:25

Video
ID                             : 1
Format                         : AVC
Format/Info                    : Advanced Video Codec
Format profile                 : [email protected]
Format settings                : CABAC / 5 Ref Frames
Format settings, CABAC         : Yes
Format settings, Reference fra : 5 frames
Codec ID                       : V_MPEG4/ISO/AVC
Duration                       : 1 h 41 min
Bit rate                       : 899 kb/s
Width                          : 1 280 pixels
Height                         : 536 pixels
Display aspect ratio           : 2.40:1
Frame rate mode                : Constant
Frame rate                     : 23.976 (24000/1001) FPS
Color space                    : YUV
Chroma subsampling             : 4:2:0
Bit depth                      : 8 bits
Scan type                      : Progressive
Bits/(Pixel*Frame)             : 0.055
Stream size                    : 650 MiB (82%)
Title                          : GOPI SAHI
Writing library                : x264 core 157 r2935 545de2f

Audio #1
ID                             : 2
Format                         : AAC LC
Format/Info                    : Advanced Audio Codec Low Complexity
Codec ID                       : A_AAC-2
Duration                       : 1 h 41 min
Bit rate                       : 96.0 kb/s
Channel(s)                     : 2 channels
Channel layout                 : L R
Sampling rate                  : 48.0 kHz
Frame rate                     : 46.875 FPS (1024 SPF)
Compression mode               : Lossy
Delay relative to video        : -21 ms
Stream size                    : 69.6 MiB (9%)
Title                          : GOPI SAHI
Language                       : Hindi
Default                        : Yes
Forced                         : No

Audio #2
ID                             : 3
Format                         : AAC LC
Format/Info                    : Advanced Audio Codec Low Complexity
Codec ID                       : A_AAC-2
Duration                       : 1 h 41 min
Bit rate                       : 96.0 kb/s
Channel(s)                     : 2 channels
Channel layout                 : L R
Sampling rate                  : 48.0 kHz
Frame rate                     : 46.875 FPS (1024 SPF)
Compression mode               : Lossy
Delay relative to video        : -21 ms
Stream size                    : 69.6 MiB (9%)
Title                          : GOPI SAHI
Language                       : English
Default                        : No
Forced                         : No

Text
ID                             : 4
Format                         : UTF-8
Codec ID                       : S_TEXT/UTF8
Codec ID/Info                  : UTF-8 Plain Text
Duration                       : 1 h 38 min
Bit rate                       : 64 b/s
Count of elements              : 1510
Stream size                    : 46.9 KiB (0%)
Title                          : GOPI SAHI
Language                       : English
Default                        : Yes
Forced                         : No




MAGNET

TORRENT

MULTIUP

ANONFILES

BAYFILES

DWONLOAD AUTO START IN 20 SEC WAIT

DWONLOAD AUTO START IN 20 SEC WAIT

GDRIVE

CLOUDRU

MEDIAFIRE

DOSYA

USAUPLOAD

ONLINE 720P

ONLINE 720P 2