Vertical Limit 2000 x264 720p Esub BluRay Dual Audio English Hindi GOPI SAHI

 

Vertical Limit (2000)

 
 
 
A climber must rescue his sister on top of K2, one of the world's biggest mountains.
EN

Director:

Martin Campbell

Writers:

Robert King (story), Robert King (screenplay) | 1 more credit »
 
 
5.9/10
58,000
Directed byMartin Campbell
Produced byMartin Campbell
Robert King
Marcia Nasatir
Lloyd Phillips
Screenplay byRobert King
Terry Hayes
Story byRobert King
Starring
Music byJames Newton Howard
CinematographyDavid Tattersall
Edited byThom Noble
Production
company
Distributed bySony Pictures Releasing
Release date
  • December 8, 2000
Running time
124 minutes
CountryUnited States
LanguageEnglish
Budget$75 million[1]
Box office$215.7 million[2]

 

Vertical Limit 2000 x264 720p Esub BluRay Dual Audio English Hindi GOPI SAHI

Format                         : Matroska
Format version                 : Version 4
File size                      : 992 MiB
Duration                       : 2 h 4 min
Overall bit rate               : 1 114 kb/s
Movie name                     : Vertical Limit 2000 GOPISAHI
Encoded date                   : UTC 2019-12-26 06:55:20

Video
ID                             : 1
Format                         : AVC
Format/Info                    : Advanced Video Codec
Format profile                 : [email protected]
Format settings                : CABAC / 9 Ref Frames
Format settings, CABAC         : Yes
Format settings, Reference fra : 9 frames
Codec ID                       : V_MPEG4/ISO/AVC
Duration                       : 2 h 4 min
Bit rate                       : 899 kb/s
Width                          : 1 280 pixels
Height                         : 694 pixels
Display aspect ratio           : 1.85:1
Frame rate mode                : Constant
Frame rate                     : 23.976 (24000/1001) FPS
Color space                    : YUV
Chroma subsampling             : 4:2:0
Bit depth                      : 8 bits
Scan type                      : Progressive
Bits/(Pixel*Frame)             : 0.042
Stream size                    : 800 MiB (81%)
Title                          : GOPISAHI
Writing library                : x264 core 157 r2935 545de2f

Audio #1
ID                             : 2
Format                         : AAC LC
Format/Info                    : Advanced Audio Codec Low Complexity
Codec ID                       : A_AAC-2
Duration                       : 2 h 4 min
Bit rate                       : 96.0 kb/s
Channel(s)                     : 2 channels
Channel layout                 : L R
Sampling rate                  : 48.0 kHz
Frame rate                     : 46.875 FPS (1024 SPF)
Compression mode               : Lossy
Delay relative to video        : 2 s 970 ms
Stream size                    : 85.8 MiB (9%)
Title                          : GOPISAHI
Language                       : Hindi
Default                        : Yes
Forced                         : No

Audio #2
ID                             : 3
Format                         : AAC LC
Format/Info                    : Advanced Audio Codec Low Complexity
Codec ID                       : A_AAC-2
Duration                       : 2 h 4 min
Bit rate                       : 96.0 kb/s
Channel(s)                     : 2 channels
Channel layout                 : L R
Sampling rate                  : 48.0 kHz
Frame rate                     : 46.875 FPS (1024 SPF)
Compression mode               : Lossy
Delay relative to video        : -21 ms
Stream size                    : 85.8 MiB (9%)
Title                          : GOPISAHI
Language                       : English
Default                        : No
Forced                         : No

Text #1
ID                             : 4
Format                         : PGS
Muxing mode                    : zlib
Codec ID                       : S_HDMV/PGS
Codec ID/Info                  : Picture based subtitle format used on BDs/HD-DVDs
Duration                       : 1 h 56 min
Bit rate                       : 30.0 kb/s
Count of elements              : 1660
Stream size                    : 24.9 MiB (3%)
Title                          : GOPISAHI
Language                       : Hindi
Default                        : Yes
Forced                         : Yes

Text #2
ID                             : 5
Format                         : PGS
Muxing mode                    : zlib
Codec ID                       : S_HDMV/PGS
Codec ID/Info                  : Picture based subtitle format used on BDs/HD-DVDs
Duration                       : 1 h 55 min
Bit rate                       : 32.4 kb/s
Count of elements              : 1638
Stream size                    : 26.7 MiB (3%)
Title                          : GOPISAHI
Language                       : English
Default                        : No
Forced                         : No

Menu
00:00:00.000                   : :Chapter 01
00:13:25.805                   : :Chapter 02
00:16:53.638                   : :Chapter 03
00:20:49.373                   : :Chapter 04
00:30:36.877                   : :Chapter 05
00:37:02.762                   : :Chapter 06
00:45:55.086                   : :Chapter 07
00:53:45.139                   : :Chapter 08
00:59:49.419                   : :Chapter 09
01:11:23.696                   : :Chapter 10
01:14:17.912                   : :Chapter 11
01:24:30.232                   : :Chapter 12
01:33:14.339                   : :Chapter 13
01:37:07.071                   : :Chapter 14
01:43:11.644                   : :Chapter 15
01:52:46.343                   : :Chapter 16

 




MAGNET

TORRENT

MULTIUP

ANONFILES

BAYFILES

DWONLOAD AUTO START IN 20 SEC WAIT

DWONLOAD AUTO START IN 20 SEC WAIT

GDRIVE

CLOUDRU

MEDIAFIRE

DOSYA

USAUPLOAD

ONLINE 720P

ONLINE 720P 2