The Mummy Returns 2001 x264 720p Esub BluRay Dual Audio English Hindi GOPI SAHI

The Mummy Returns (2001)


PG-13 | | Action, Adventure, Fantasy | 4 May 2001 (USA) 
The mummified body of Imhotep is shipped to a museum in London, where he once again wakes and begins his campaign of rage and terror.
EN

Director:

Stephen Sommers

Writer:

Stephen Sommers

6.3/10
297,310

Directed byStephen Sommers
Produced bySean Daniel
James Jacks
Written byStephen Sommers
Based on
Characters
by
StarringBrendan Fraser
Rachel Weisz
John Hannah
Arnold Vosloo
Oded Fehr
Patricia Velásquez
Dwayne Johnson
Music byAlan Silvestri
CinematographyAdrian Biddle
Edited byBob Ducsay
Kelly Matsumoto
Production
company
Alphaville Films
Distributed byUniversal Pictures
Release date
  • May 4, 2001
Running time
130 minutes
CountryUnited States
LanguageEnglish
Arabic
Budget$98 million[1]
Box office$435 million[1]


The Mummy Returns 2001 GOPI SAHI

Format                         : Matroska
Format version                 : Version 4
File size                      : 1 016 MiB
Duration                       : 2 h 9 min
Overall bit rate               : 1 096 kb/s
Movie name                     : 2 The Mummy Returns 2001 GOPI SAHI
Encoded date                   : UTC 2020-10-05 05:15:58
Attachments                    : Hammer Logo.jpg

Video
ID                             : 1
Format                         : AVC
Format/Info                    : Advanced Video Codec
Format profile                 : [email protected]
Format settings                : CABAC / 5 Ref Frames
Format settings, CABAC         : Yes
Format settings, Reference fra : 5 frames
Codec ID                       : V_MPEG4/ISO/AVC
Duration                       : 2 h 9 min
Bit rate                       : 899 kb/s
Width                          : 1 280 pixels
Height                         : 544 pixels
Display aspect ratio           : 2.35:1
Frame rate mode                : Constant
Frame rate                     : 23.976 (24000/1001) FPS
Color space                    : YUV
Chroma subsampling             : 4:2:0
Bit depth                      : 8 bits
Scan type                      : Progressive
Bits/(Pixel*Frame)             : 0.054
Stream size                    : 833 MiB (82%)
Title                          : GOPI SAHI
Writing library                : x264 core 157 r2935 545de2f

Audio #1
ID                             : 2
Format                         : AAC LC
Format/Info                    : Advanced Audio Codec Low Complexity
Codec ID                       : A_AAC-2
Duration                       : 2 h 9 min
Bit rate                       : 96.0 kb/s
Channel(s)                     : 2 channels
Channel layout                 : L R
Sampling rate                  : 48.0 kHz
Frame rate                     : 46.875 FPS (1024 SPF)
Compression mode               : Lossy
Delay relative to video        : 829 ms
Stream size                    : 89.3 MiB (9%)
Title                          : GOPI SAHI
Language                       : Hindi
Default                        : Yes
Forced                         : No

Audio #2
ID                             : 3
Format                         : AAC LC
Format/Info                    : Advanced Audio Codec Low Complexity
Codec ID                       : A_AAC-2
Duration                       : 2 h 9 min
Bit rate                       : 96.0 kb/s
Channel(s)                     : 2 channels
Channel layout                 : L R
Sampling rate                  : 48.0 kHz
Frame rate                     : 46.875 FPS (1024 SPF)
Compression mode               : Lossy
Delay relative to video        : -21 ms
Stream size                    : 89.3 MiB (9%)
Title                          : GOPI SAHI
Language                       : English
Default                        : No
Forced                         : No

Text #1
ID                             : 4
Format                         : PGS
Muxing mode                    : zlib
Codec ID                       : S_HDMV/PGS
Codec ID/Info                  : Picture based subtitle format used on BDs/HD-DVDs
Duration                       : 2 h 1 min
Bit rate                       : 8 900 b/s
Count of elements              : 1962
Stream size                    : 7.71 MiB (1%)
Title                          : GOPI SAHI
Language                       : Hindi
Default                        : No
Forced                         : No

Text #2
ID                             : 5
Format                         : UTF-8
Codec ID                       : S_TEXT/UTF8
Codec ID/Info                  : UTF-8 Plain Text
Duration                       : 1 h 20 min
Bit rate                       : 3 b/s
Count of elements              : 100
Stream size                    : 2.31 KiB (0%)
Title                          : GOPI SAHI
Language                       : English
Default                        : No
Forced                         : No