The Mummy 2017 x264 720p Esub BluRay Dual Audio English Hindi GOPI SAHI

The Mummy (2017)


PG-13 | | Action, Adventure, Fantasy | 9 June 2017 (USA)


An ancient Egyptian princess is awakened from her crypt beneath the desert, bringing with her malevolence grown over millennia, and terrors that defy human comprehension.
EN

Director:

Alex Kurtzman

Writers:

David Koepp (screenplay by), Christopher McQuarrie (screenplay by) | 4 more credits »

5.4/10
169,766

Directed byAlex Kurtzman
Produced by
Screenplay by
Story by
Starring
Music byBrian Tyler
CinematographyBen Seresin
Edited by
Production
company
Distributed byUniversal Pictures
Release date
Running time
110 minutes[1]
CountryUnited States
LanguageEnglish
Budget$125–195 million[2][3]
Box office$410 million[4]




The Mummy 2017 GOPI SAHI
Format                         : Matroska
Format version                 : Version 4
File size                      : 863 MiB
Duration                       : 1 h 50 min
Overall bit rate               : 1 096 kb/s
Movie name                     : 5 The Mummy 2017 GOPI SAHI
Encoded date                   : UTC 2020-10-05 08:18:43

Video
ID                             : 1
Format                         : AVC
Format/Info                    : Advanced Video Codec
Format profile                 : [email protected]
Format settings                : CABAC / 4 Ref Frames
Format settings, CABAC         : Yes
Format settings, Reference fra : 4 frames
Codec ID                       : V_MPEG4/ISO/AVC
Duration                       : 1 h 50 min
Bit rate                       : 900 kb/s
Width                          : 1 280 pixels
Height                         : 534 pixels
Display aspect ratio           : 2.40:1
Original display aspect ratio  : 2.40:1
Frame rate mode                : Constant
Frame rate                     : 23.976 (24000/1001) FPS
Color space                    : YUV
Chroma subsampling             : 4:2:0
Bit depth                      : 8 bits
Scan type                      : Progressive
Bits/(Pixel*Frame)             : 0.055
Stream size                    : 709 MiB (82%)
Title                          : GOPI SAHI
Writing library                : x264 core 148

Audio #1
ID                             : 3
Format                         : AAC LC
Format/Info                    : Advanced Audio Codec Low Complexity
Codec ID                       : A_AAC-2
Duration                       : 1 h 50 min
Bit rate                       : 96.0 kb/s
Channel(s)                     : 2 channels
Channel layout                 : L R
Sampling rate                  : 48.0 kHz
Frame rate                     : 46.875 FPS (1024 SPF)
Compression mode               : Lossy
Delay relative to video        : -43 ms
Stream size                    : 76.1 MiB (9%)
Title                          : GOPI SAHI
Language                       : Hindi
Default                        : No
Forced                         : No

Audio #2
ID                             : 4
Format                         : AAC LC
Format/Info                    : Advanced Audio Codec Low Complexity
Codec ID                       : A_AAC-2
Duration                       : 1 h 50 min
Bit rate                       : 96.0 kb/s
Channel(s)                     : 2 channels
Channel layout                 : L R
Sampling rate                  : 48.0 kHz
Frame rate                     : 46.875 FPS (1024 SPF)
Compression mode               : Lossy
Delay relative to video        : -43 ms
Stream size                    : 76.1 MiB (9%)
Title                          : GOPI SAHI
Language                       : English
Default                        : No
Forced                         : No

Text
ID                             : 2
Format                         : UTF-8
Codec ID                       : S_TEXT/UTF8
Codec ID/Info                  : UTF-8 Plain Text
Duration                       : 1 h 37 min
Bit rate                       : 49 b/s
Count of elements              : 1357
Stream size                    : 35.4 KiB (0%)
Title                          : GOPI SAHI
Language                       : English
Default                        : Yes
Forced                         : No