The Man with the Iron Fists 2012 x264 720p Esub BluRay Dual Audio English Hindi GOPI SAHI

 

The Man with the Iron Fists (2012)

 
On the hunt for a fabled treasure of gold, a band of warriors, assassins, and a rogue British soldier descend upon a village in feudal China, where a humble blacksmith looks to defend himself and his fellow villagers.
EN

Director:

RZA

Writers:

RZA (story), RZA (screenplay) (as The RZA) | 1 more credit »
 
5.4/10
60,065
 
Directed byRZA
Produced by
Screenplay by
  • The RZA
  • Eli Roth
Story byRZA
Starring
Music by
CinematographyChi Ying Chan
Edited byJoe D'Augustine
Production
company
Distributed byUniversal Pictures
Release date
  • November 2, 2012 (United States)
Running time
96 minutes[1]
CountryUnited States
LanguageEnglish
Budget$15 million[2]
Box office$20.5 million[2]

 

The Man with the Iron Fists 2012 x264 720p Esub BluRay Dual Audio English Hindi GOPI SAHI


Format                         : Matroska
Format version                 : Version 4
File size                      : 816 MiB
Duration                       : 1 h 35 min
Overall bit rate               : 1 197 kb/s
Movie name                     : The Man with the Iron Fists 2012 GOPI SAHI
Encoded date                   : UTC 2020-10-22 11:43:57

Video
ID                             : 1
Format                         : AVC
Format/Info                    : Advanced Video Codec
Format profile                 : [email protected]
Format settings                : CABAC / 12 Ref Frames
Format settings, CABAC         : Yes
Format settings, Reference fra : 12 frames
Codec ID                       : V_MPEG4/ISO/AVC
Duration                       : 1 h 35 min
Bit rate                       : 899 kb/s
Width                          : 1 280 pixels
Height                         : 534 pixels
Display aspect ratio           : 2.40:1
Frame rate mode                : Constant
Frame rate                     : 23.976 (24000/1001) FPS
Color space                    : YUV
Chroma subsampling             : 4:2:0
Bit depth                      : 8 bits
Scan type                      : Progressive
Bits/(Pixel*Frame)             : 0.055
Stream size                    : 612 MiB (75%)
Title                          : GOPI SAHI
Writing library                : x264 core 157 r2935 545de2f

Audio #1
ID                             : 2
Format                         : AAC LC
Format/Info                    : Advanced Audio Codec Low Complexity
Codec ID                       : A_AAC-2
Duration                       : 1 h 35 min
Bit rate                       : 192 kb/s
Channel(s)                     : 2 channels
Channel layout                 : L R
Sampling rate                  : 48.0 kHz
Frame rate                     : 46.875 FPS (1024 SPF)
Compression mode               : Lossy
Delay relative to video        : -21 ms
Stream size                    : 131 MiB (16%)
Title                          : GOPI SAHI
Language                       : Hindi
Default                        : Yes
Forced                         : No

Audio #2
ID                             : 4
Format                         : AAC LC
Format/Info                    : Advanced Audio Codec Low Complexity
Codec ID                       : A_AAC-2
Duration                       : 1 h 35 min
Bit rate                       : 96.0 kb/s
Channel(s)                     : 2 channels
Channel layout                 : L R
Sampling rate                  : 48.0 kHz
Frame rate                     : 46.875 FPS (1024 SPF)
Compression mode               : Lossy
Delay relative to video        : -21 ms
Stream size                    : 65.5 MiB (8%)
Title                          : GOPI SAHI
Language                       : English
Default                        : No
Forced                         : No

Text
ID                             : 3
Format                         : PGS
Muxing mode                    : zlib
Codec ID                       : S_HDMV/PGS
Codec ID/Info                  : Picture based subtitle format used on BDs/HD-DVDs
Duration                       : 1 h 28 min
Bit rate                       : 23.0 kb/s
Count of elements              : 1594
Stream size                    : 14.5 MiB (2%)
Title                          : GOPI SAHI
Language                       : English
Default                        : Yes
Forced                         : Yes

Menu
00:00:00.000                   : en:00:00:00.000
00:06:19.796                   : en:00:06:19.796
00:10:53.236                   : en:00:10:53.236
00:16:47.048                   : en:00:16:47.048
00:19:26.832                   : en:00:19:26.832
00:24:10.866                   : en:00:24:10.866
00:27:43.579                   : en:00:27:43.579
00:31:53.870                   : en:00:31:53.870
00:38:37.774                   : en:00:38:37.774
00:41:56.806                   : en:00:41:56.806
00:48:17.394                   : en:00:48:17.394
00:54:48.202                   : en:00:54:48.202
01:00:34.881                   : en:01:00:34.881
01:05:25.296                   : en:01:05:25.296
01:10:54.041                   : en:01:10:54.041
01:14:03.439                   : en:01:14:03.439
01:18:30.956                   : en:01:18:30.956
01:21:34.723                   : en:01:21:34.723
01:25:21.575                   : en:01:25:21.575
01:29:01.378                   : en:01:29:01.378



 

 MAGNET

TORRENT

MULTIUP

DWONLOAD AUTO START IN 20 SEC WAIT

DWONLOAD AUTO START IN 20 SEC WAIT

GDRIVE

CLOUDRU

MEDIAFIRE

DOSYA

USAUPLOAD


ONLINE 720P