The Little Stranger 2018 x264 720p Esub BluRay Dual Audio English Hindi GOPI SAHI

The Little Stranger (2018)



After a doctor is called to visit a crumbling manor, strange things begin to occur.
EN

Director:

Lenny Abrahamson

Writers:

Lucinda Coxon (screenplay), Sarah Waters (based on: "The Little Stranger" by)

5.5/10
7,561
Directed byLenny Abrahamson
Produced by
Written byLucinda Coxon
Based onThe Little Stranger
by Sarah Waters
Starring
Music byStephen Rennicks
CinematographyOle Bratt Birkeland
Edited byNathan Nugent
Production
company
Distributed byPathé Distribution (France)
20th Century Fox (United Kingdom/Ireland)
Release date
  • 21 September 2018 (United Kingdom & Ireland)
Running time
111 minutes[2]
Country
  • Ireland
  • United Kingdom
  • France
LanguageEnglish
Box office$1.8 million[3]



The Little Stranger 2018 x264 720p Esub BluRay Dual Audio English Hindi GOPI SAHI

Format                         : Matroska
Format version                 : Version 4
File size                      : 888 MiB
Duration                       : 1 h 51 min
Overall bit rate               : 1 111 kb/s
Movie name                     : The Little Stranger 2018 GOPI SAHI
Encoded date                   : UTC 2020-09-30 13:27:45

Video
ID                             : 1
Format                         : AVC
Format/Info                    : Advanced Video Codec
Format profile                 : [email protected]
Format settings                : CABAC / 5 Ref Frames
Format settings, CABAC         : Yes
Format settings, Reference fra : 5 frames
Codec ID                       : V_MPEG4/ISO/AVC
Duration                       : 1 h 51 min
Bit rate                       : 899 kb/s
Width                          : 1 280 pixels
Height                         : 694 pixels
Display aspect ratio           : 1.85:1
Frame rate mode                : Constant
Frame rate                     : 23.976 (24000/1001) FPS
Color space                    : YUV
Chroma subsampling             : 4:2:0
Bit depth                      : 8 bits
Scan type                      : Progressive
Bits/(Pixel*Frame)             : 0.042
Stream size                    : 718 MiB (81%)
Title                          : GOPI SAHI
Writing library                : x264 core 157 r2935 545de2f

Audio #1
ID                             : 2
Format                         : AAC LC
Format/Info                    : Advanced Audio Codec Low Complexity
Codec ID                       : A_AAC-2
Duration                       : 1 h 51 min
Bit rate                       : 96.0 kb/s
Channel(s)                     : 2 channels
Channel layout                 : L R
Sampling rate                  : 48.0 kHz
Frame rate                     : 46.875 FPS (1024 SPF)
Compression mode               : Lossy
Delay relative to video        : 1 s 579 ms
Stream size                    : 76.7 MiB (9%)
Title                          : GOPI SAHI
Language                       : Hindi
Default                        : Yes
Forced                         : No

Audio #2
ID                             : 3
Format                         : AAC LC
Format/Info                    : Advanced Audio Codec Low Complexity
Codec ID                       : A_AAC-2
Duration                       : 1 h 51 min
Bit rate                       : 96.0 kb/s
Channel(s)                     : 2 channels
Channel layout                 : L R
Sampling rate                  : 48.0 kHz
Frame rate                     : 46.875 FPS (1024 SPF)
Compression mode               : Lossy
Delay relative to video        : -21 ms
Stream size                    : 76.8 MiB (9%)
Title                          : GOPI SAHI
Language                       : English
Default                        : No
Forced                         : No

Text #1
ID                             : 4
Format                         : PGS
Muxing mode                    : zlib
Codec ID                       : S_HDMV/PGS
Codec ID/Info                  : Picture based subtitle format used on BDs/HD-DVDs
Duration                       : 1 h 49 min
Bit rate                       : 22.3 kb/s
Count of elements              : 2628
Stream size                    : 17.5 MiB (2%)
Title                          : GOPI SAHI
Language                       : Hindi
Default                        : Yes
Forced                         : No

Text #2
ID                             : 5
Format                         : PGS
Muxing mode                    : zlib
Codec ID                       : S_HDMV/PGS
Codec ID/Info                  : Picture based subtitle format used on BDs/HD-DVDs
Duration                       : 1 h 40 min
Bit rate                       : 23.3 kb/s
Count of elements              : 2502
Stream size                    : 16.7 MiB (2%)
Title                          : GOPI SAHI
Language                       : English
Default                        : No
Forced                         : No