The Lion King 2019 x264 720p Esub BluRay Dual Audio English Hindi GOPISAHI

The Lion King (2019)

 
 After the murder of his father, a young lion prince flees his kingdom only to learn the true meaning of responsibility and bravery.
EN

Director:

Jon Favreau

Writers:

Jeff Nathanson (screenplay by), Irene Mecchi (based on "The Lion King" screenplay by) | 2 more credits »
 
6.9/10 
Directed byJon Favreau
Produced by
  • Jon Favreau
  • Jeffrey Silver
  • Karen Gilchrist
Screenplay byJeff Nathanson
Based on
Starring
Music byHans Zimmer
CinematographyCaleb Deschanel
Edited by
Production
company
Distributed byWalt Disney Studios
Motion Pictures
Release date
  • July 9, 2019 (Hollywood)
  • July 19, 2019 (United States)
Running time
118 minutes[2]
CountryUnited States
LanguageEnglish
Budget$250–260 million[3][4]
Box office$1.657 billion[5]

 

 

 

 

The Lion King 2019 x264 720p Esub BluRay Dual Audio English Hindi GOPISAHI


Format                         : Matroska
Format version                 : Version 4
File size                      : 926 MiB
Duration                       : 2 h 0 min
Overall bit rate               : 1 072 kb/s
Movie name                     : THE LION KING 2019 GOPISAHI
Encoded date                   : UTC 2019-12-06 09:33:45

Video
ID                             : 1
Format                         : AVC
Format/Info                    : Advanced Video Codec
Format profile                 : [email protected]
Format settings                : CABAC / 9 Ref Frames
Format settings, CABAC         : Yes
Format settings, Reference fra : 9 frames
Codec ID                       : V_MPEG4/ISO/AVC
Duration                       : 1 h 58 min
Bit rate                       : 899 kb/s
Width                          : 1 280 pixels
Height                         : 720 pixels
Display aspect ratio           : 16:9
Frame rate mode                : Constant
Frame rate                     : 23.976 (24000/1001) FPS
Color space                    : YUV
Chroma subsampling             : 4:2:0
Bit depth                      : 8 bits
Scan type                      : Progressive
Bits/(Pixel*Frame)             : 0.041
Stream size                    : 760 MiB (82%)
Title                          : GOPISAHI
Writing library                : x264 core 157 r2935 545de2f

Audio #1
ID                             : 3
Format                         : AAC LC
Format/Info                    : Advanced Audio Codec Low Complexity
Codec ID                       : A_AAC-2
Duration                       : 2 h 0 min
Bit rate                       : 96.0 kb/s
Channel(s)                     : 2 channels
Channel layout                 : L R
Sampling rate                  : 48.0 kHz
Frame rate                     : 46.875 FPS (1024 SPF)
Compression mode               : Lossy
Delay relative to video        : 3 s 678 ms
Stream size                    : 82.4 MiB (9%)
Title                          : GOPISAHI
Language                       : Hindi
Default                        : Yes
Forced                         : No

Audio #2
ID                             : 4
Format                         : AAC LC
Format/Info                    : Advanced Audio Codec Low Complexity
Codec ID                       : A_AAC-2
Duration                       : 1 h 58 min
Bit rate                       : 96.0 kb/s
Channel(s)                     : 2 channels
Channel layout                 : L R
Sampling rate                  : 48.0 kHz
Frame rate                     : 46.875 FPS (1024 SPF)
Compression mode               : Lossy
Delay relative to video        : -21 ms
Stream size                    : 81.2 MiB (9%)
Title                          : GOPISAHI
Language                       : English
Default                        : No
Forced                         : No

Text
ID                             : 2
Format                         : UTF-8
Codec ID                       : S_TEXT/UTF8
Codec ID/Info                  : UTF-8 Plain Text
Duration                       : 1 h 52 min
Bit rate                       : 56 b/s
Count of elements              : 1740
Stream size                    : 46.6 KiB (0%)
Title                          : GOPISAHI
Language                       : English
Default                        : Yes
Forced                         : No

Menu
00:00:00.000                   : :Capítulo 01
00:04:50.498                   : :Capítulo 02
00:10:51.067                   : :Capítulo 03
00:17:47.691                   : :Capítulo 04
00:23:53.014                   : :Capítulo 05
00:30:00.131                   : :Capítulo 06
00:33:05.066                   : :Capítulo 07
00:37:09.310                   : :Capítulo 08
00:43:42.911                   : :Capítulo 09
00:50:47.335                   : :Capítulo 10
00:55:02.716                   : :Capítulo 11
00:59:48.459                   : :Capítulo 12
01:06:27.233                   : :Capítulo 13
01:14:32.092                   : :Capítulo 14
01:18:26.410                   : :Capítulo 15
01:23:07.899                   : :Capítulo 16
01:28:04.654                   : :Capítulo 17
01:33:10.876                   : :Capítulo 18
01:37:13.744                   : :Capítulo 19
01:44:39.189                   : :Capítulo 20
01:47:47.335                   : :Capítulo 21





 MAGNET

TORRENT


MULTIUP

ANONFILES

BAYFILES


DWONLOAD AUTO START IN 20 SEC WAIT

DWONLOAD AUTO START IN 20 SEC WAIT

GDRIVE

CLOUDRU

MEDIAFIRE

DOSYA


USAUPLOAD


ONLINE 720P

ONLINE 720P 2